новый адрес пиратбит piratbit
Мега распродажа FORZA HORIZON 4 ULTIMATE+ВСЕ DLC+ОНЛАЙН всего за 499р. 349 руб. (супер цена). Внимание количество ограничено!!!

iTunes

1+1

iTunes

мы

iTunes

1

iTunes

Чернобыль

iTunes

Ральф против интернета

Лицензия

ПШазам

Лицензия

Игра престолов

Лицензия

30
pack

ВАЖНО

!!Акция!!

Alien_RageХит недели

RePack

Resident Evil 21

ИГРА 18+

pack

RePack

Metro:Exodus

!!Акция!!

Alien_Rage

RePack

fifa19

RePack

Assassins Creed: Odyssey

RePack

NEED FOR SPEED™ PAYBACK

3 сезон

9 сезон

Бесстыжие 9 сезон

Все сериалы

все сериалы на PB.wtf

RePack

FAR CRY 5
Ребята, катастрофически не хватает 1900р. для оплаты серверов за Октябрь (всвязи с блокировками трафик упал в 3 раза), 1-2р., выручайте.
  

Прощание славянки (Евгений Васильев ) [1985, драма, DVDRip-AVC] pb.wtf

Прощание славянки через торрент pb.wtf

Размер: 1.2 GB | Добавлен: 3 года назад | Торрент скачан:22 раза
Скачать  

22-10-2016 19:26 Прощание славянки Скачать торрент  

Прощание славянки

Год выпуска: 1985
Страна: СССР
Жанр: драма
Продолжительность: 01:19:09
Перевод: Не требуется [Русский]
Режиссер: Евгений Васильев
В ролях: Галина Макарова (Анна Ивановна), Юрий Назаров (Александр Градов), Наталья Гундарева (Женя), Евгений Лебедев (Семён Протасович), Екатерина Васильева (Лена), Тимофей Спивак (Алексей), Майя Булгакова (Людмила Герасимовна), Анатолий Егоров (дядя Лёня), Наталья Острикова (Анна Ивановна в молодости), Надежда Семенцова (врач в детдоме), Виктор Павлов (Фёдор Леонтьевич), Александр Иншаков (Градов в детстве)
Описание:
Полковник авиации в отставке приезжает летом на отдых в Крым. Приезжает дикарем, поэтому главной проблемой для него становится поиск места на ночлег. Ведь в этих краях летом полно отдыхающих, а для местных жителей сдать койку на ночь в эту пору — главный бизнес, да еще груш, яблок, винограду продать, глядишь и зиму спокойно можно прожить.
Многие здесь за счет этого просто выживают, а некоторые черствеют душой, думают только о наживе, становятся циничными, безразличными к человеческим судьбам, хмурыми и злыми людьми.
Все больше похожей на последних становится Анна Ивановна, квартирная хозяйка, у которой полковник находит приют на одну ночь. Разглядывая фото на стене в гостиной, он вдруг на одной из них узнает себя в юности вместе с другом, умершим от чахотки, оказавшимся сыном хозяйки…

Качество: DVDRip-AVC
Формат: MKV
Видео: AVC, 700x524 (4:3), 1930 kbps, 25 fps, 0,211 bpp
Аудио: русский / AC3 / 2.0 / 48 kHz / 192 kbps /

General
Unique ID Прощание славянки.1985.mkv
Format : Matroska
Format version : Version 4 / Version 2
File size : 1.20 GiB
Duration : 1 h 19 min
Overall bit rate : 2 165 kb/s
Movie name : Release for Topmost
Encoded date : UTC 2016-10-16 17:32:40
Writing application : mkvmerge v6.2.0 ('Promised Land') built on Apr 28 2013 12:22:01
Writing library : libebml v1.3.0 + libmatroska v1.4.0

Video
ID : 1
Format : AVC
Format/Info : Advanced Video Codec
Format profile : High@L4.1
Format settings, CABAC : Yes
Format settings, ReFrames : 8 frames
Codec ID : V_MPEG4/ISO/AVC
Duration : 1 h 19 min
Bit rate : 1 930 kb/s
Width : 700 pixels
Height : 524 pixels
Display aspect ratio : 4:3
Frame rate mode : Constant
Frame rate : 25.000 FPS
Color space : YUV
Chroma subsampling : 4:2:0
Bit depth : 8 bits
Scan type : Progressive
Bits/(Pixel*Frame) : 0.211
Stream size : 1.07 GiB (89%)
Title : Прощание славянки.1985 (Release for Topmost)
Writing library : x264 core 146 r2538bm 121396c
Encoding settings : cabac=1 / ref=8 / deblock=1:0:0 / analyse=0x3:0x133 / me=umh / subme=9 / psy=1 / psy_rd=1.00:0.00 / mixed_ref=1 / me_range=16 / chroma_me=1 / trellis=2 / 8x8dct=1 / cqm=0 / deadzone=21,11 / fast_pskip=1 / chroma_qp_offset=-2 / threads=3 / lookahead_threads=1 / sliced_threads=0 / nr=0 / decimate=1 / interlaced=0 / bluray_compat=0 / constrained_intra=0 / bframes=3 / b_pyramid=2 / b_adapt=2 / b_bias=0 / direct=3 / weightb=1 / open_gop=0 / weightp=2 / keyint=250 / keyint_min=25 / scenecut=40 / intra_refresh=0 / rc_lookahead=60 / rc=crf / mbtree=1 / crf=16.5 / qcomp=0.60 / qpmin=0 / qpmax=69 / qpstep=4 / ip_ratio=1.40 / aq=1:1.00
Language : Russian
Default : Yes
Forced : No

Audio
ID : 2
Format : AC-3
Format/Info : Audio Coding 3
Mode extension : CM (complete main)
Format settings, Endianness : Big
Codec ID : A_AC3
Duration : 1 h 19 min
Bit rate mode : Constant
Bit rate : 192 kb/s
Channel(s) : 2 channels
Channel positions : Front: L R
Sampling rate : 48.0 kHz
Frame rate : 31.250 FPS (1536 spf)
Compression mode : Lossy
Delay relative to video : 2 s 564 ms
Stream size : 109 MiB (9%)
Language : Russian
Default : Yes
Forced : No
Скриншоты:
pb.wtf



Скачать Прощание славянки через торрент http://i3.imageban.ru/out/2016/10/22/d51d82a470bec6fe2e12dfae1612f5e7.jpg Скачать фильм Прощание славянки через торрент бесплантно в хорошем качестве Описание: Полковник авиации в отставке приезжает летом на отдых в Крым. Приезжает дикарем, поэтому главной проблемой для него становится ... 10 10 1
Торрент: Зарегистрирован [2016-10-22 19:26] · скачан: 22 раз
Статус: √ проверено
Размер: 1.2 GB
Как cкачать? Как скачать Прощание славянки через торрент | qTorrent

% Раздел Тема Автор DL S | L
Сборники отечественного шансона [ 912 MB ] VA - Прощание Славянки: Лирика Шансона 17 выпуск 2016 / MP3 / 320 kbps / Шансон den7z8 Скачать
1 | 0
Наши фильмы 2010-2011 [ 1.34 GB ] Прощание славянки [2011 Мело SATRip] -=Cherry=- Скачать
1 | 0


>> Регистрируемся здесь <<






Отзывы и комментарии о схеме читаем и пишем здесь: ---> Отзывы и комментарии о схеме

Новые благодарочки в телеграм довольных пользователей:
скриншот   скриншот   скриншот   скриншот   скриншот
    Дорогой пользователь! Огромная просьба, поблагодарите релизера, оцените раздачу и оставьте свои комментарий, если Вы скачали Прощание славянки через торрент бесплатно! Внесите свою лепту в развитие PiratBit!
    Комментировать посты могут только пользователи прошедшие не сложную регистрацию
    Показать сообщения:    

    Прощание славянки через торрент
    Скачать бесплатно Прощание славянки
    Прощание славянки скачать торрент
    Прощание славянки смотреть онлайн
    Cкачать фильм Прощание славянки бесплатно
    Прощание славянки скачать торрент в хорошем качестве
    Прощание славянки смотреть онлайн бесплатно в хорошем качестве


    Вы не можете начинать темы
    Вы не можете отвечать на сообщения
    Вы не можете редактировать свои сообщения
    Вы не можете удалять свои сообщения
    Вы не можете голосовать в опросах
    Вы не можете прикреплять файлы к сообщениям
    Вы можете скачивать файлы