2 сезон

iTunes

1 сезон

1

iTunes

iTunes

iTunes

1 сезон

RePack

30

ИГРА 18+

pack

ВАЖНО

!!Акция!!

Alien_RageХит недели

RePack

MK11
pack

Забери бонус

RePack

jed

!!Акция!!

Alien_Rage

RePack

fifa19

RePack

Assassins Creed: Odyssey

RePack

NEED FOR SPEED™ PAYBACK

4 сезон

9 сезон

Бесстыжие 9 сезон

Все сериалы

все сериалы на PB.wtf

RePack

FAR CRY 5
  

Шакал (1-8 серии из 8) (Евгений Звездаков) [2016 г., Детектив, HDTV (1080i)] Оригинал pb.wtf

Шакал через торрент pb.wtf

Размер: 17.66 GB | Добавлен: 4 года назад | Торрент скачан:189 раз
Скачать  

23-10-2016 04:44 Шакал Скачать торрент  

Шакал
Год выпуска: 2016
Страна: Россия
Жанр: Детектив
Продолжительность: 8 х ~ 00:50:00
Перевод: Оригинал
Субтитры: Нет

Режиссер: Евгений Звездаков

В ролях: Андрей Смоляков, Марина Александрова, Екатерина Климова, Вадим Андреев, Алексей Бардуков, Павел Чинарёв, Александра Бортич, Сергей Белов, Юрий Ицков, Андрей Феськов, Юрий Чурсин, Юрий Тарасов, Сергей Жигунов, Ирина Старшенбаум, Сергей Юшкевич, Анна Котова, Даниэла Стоянович, Мария Андреева, Игорь Филиппов, Дмитрий Мазуров, Ксения Щербакова, Александр Дробитько

Описание: Начало 1970-х. Майор Черкасов и его команда расследуют новое дело. На этот раз речь идет об ограблениях. А это сфера отдела по борьбе с хищениями социалистической собственности (ОБХСС). Во время грабежей бандиты беспощадно убивают свидетелей. Ограбления организованы четко и продумано. И готовит их кто-то очень осведомленный. Руководство принимает решение объединить против "беспредельщиков" усилия двух ведомств московской милиции: МВД и ОБХСС.

Качество: HDTV (1080i)
Формат: TS
Видео кодек: AVC
Аудио кодек: AC3-MP2
Видео: MPEG-4 AVC, (1920x1080),5100 Кбит/с, 25.000 кадра/сек
Аудио#1: AC3, 6 ch,384 kbps (Rus) 48.0 KHz Оригинал
Аудио#2: MP2, 2 ch, 192 kbps (Rus) 48.0 KHz Оригинал
скриншот   скриншот   скриншот  

Тип потока: Видео
Длительность: 00:51:46
Кодек: AVC
Кодек/описание: Advanced Video Codec
Кодек/профиль: High@L4.0
Кодек/ID: 27
Кодек/CABAC: Yes
Кодек/ReFrames: 3 frames
Размеры изображения: 1920 x 1080 (16:9)
Частота кадров: 25.000 fps
Размер потока: 1.89 GiB (86%)
Битрейт: 5 235 Kbps
Стандарт: Component
Цветовое пространство: YUV
Тип развёртки: Interlaced
Колориметрия: 4:2:0
Глубина: 8 bits
:
Тип потока: Звук #1
Язык: Russian
Длительность: 00:51:46.720
Кодек: AC-3
Кодек/описание: Audio Coding 3
Кодек/ID: 6
Частота дискретизации: 48.0 KHz
Каналов: 6 channels
Битрейт: 384 Kbps
Битрейт/тип: Constant
Размер потока: 142 MiB (6%)
Глубина: 16 bits
Метод сжатия: Lossy
:
Тип потока: Звук #2
Язык: Russian
Длительность: 00:51:46.728
Кодек: MPEG Audio
Кодек/профиль: Layer 2
Кодек/ID: 3
Частота дискретизации: 48.0 KHz
Каналов: 2 channels
Битрейт: 192 Kbps
Битрейт/тип: Constant
Размер потока: 71.1 MiB (3%)
Метод сжатия: Lossy

pb.wtf



Скачать Шакал через торрент http://pic1.kartinco.top/images/10/9g3vy.jpg Скачать фильм Шакал через торрент бесплантно в хорошем качестве Описание: Начало 1970-х. Майор Черкасов и его команда расследуют новое дело. На этот раз речь идет об ограблениях. А это сфера отдела по ... 9.3 10 15
Info! Золотая раздача, скачанное не засчитывается.
Торрент: Зарегистрирован [2016-10-23 04:44] · скачан: 189 раз
Статус: √ проверено
Размер: 17.66 GB
Как cкачать? Как скачать Шакал через торрент | qTorrent



Последний раз редактировалось: Бумер (2016-10-23 04:47), всего редактировалось 1 раз

28-11-2019 20:33  

Отключить всю рекламу на сайте

23-10-2016 04:47 Шакал Скачать торрент  

5000 тысяч очков золотоpb.wtf



24-10-2016 06:19 Шакал Скачать торрент  

Шлак отечественного кинопроизводства.
Даже посмотрев одним глазом на очередное конвейерное творение, очередную «Премьеру» центрального канала, уже знаешь и видишь, о чем это и чем закончится. Очередная поделка о временах СССР для ностальгирующей целевой аудитории, где толчком для преступного пути молодых ребят служит американское кино. Впрочем, кроме СССР, бандитов и любовных треугольников, а чаще многоугольников с одними и теми же действующими лицами по одним и тем же сюжетам у нас на ТВ давно уже ничего снять не могут. Оно и понятно, если посмотреть на сценаристов, точнее сценаристку в единственном экземпляре, которая, словно Дарья Донцова, шлепает эти сценарии за зарплату, а не как творческие полотна, плоды многолетнего труда, навроде выношенной и многократно отполированной идеи. Или хотя бы идеи нескольких сценаристов, в конце концов, одна голова — хорошо, а 2 — лучше.

Однако тошнота наступает не только от однообразных сюжетов уровня студента театрального ВУЗа и интерьеров, кочующих из одного сьемочного павильона в другой, но и от постоянных переигрываний и кривляний наших актеров, что даже по эту сторону экрана почему-то становится немного стыдно.

Авторы таких сериалов, понятное дело, руководствуются рейтингами и зарабатыванием денег, ну а что еще смотреть целевой аудитории, она уже привыкла. Особенно у нас, где и интернет только в крупных городах нормальный, и кабельное телевидение существует даже не на всех улицах мегаполисов. А для остального люда, у которого существует 3 канала, после новостей самое то под стакан посмотреть очередной «шедевр». А может, просто лень канал переключить, так, для фона работает.

Куда уж там такие сложности, как толковый сценарий, раскрытие и харизма персонажей. Нам бы побольше советского инвентаря показать в очередной раз, да удивить «неожиданными» поворотами, видаными то на соседнем канале, то в прошлом «шедевре», либо наоборот, еще много лет назад в забугорных сериалах.

У нас еще принято западные сериалы помоями поливать. Вот только почему тогда большая часть из них выкупается и снимается адаптация — не понятно. Ну а оставшуюся треть занимают вот такие «оригинальные» проекты.
pb.wtf



    Дорогой пользователь! Огромная просьба, поблагодарите релизера, оцените раздачу и оставьте свои комментарий, если Вы скачали Шакал через торрент бесплатно! Внесите свою лепту в развитие PiratBit!
    Комментировать посты могут только пользователи прошедшие не сложную регистрацию
    Показать сообщения:    

    Шакал через торрент
    Скачать бесплатно Шакал
    Шакал скачать торрент
    Шакал смотреть онлайн
    Cкачать фильм Шакал бесплатно
    Шакал скачать торрент в хорошем качестве
    Шакал смотреть онлайн бесплатно в хорошем качестве


    Вы не можете начинать темы
    Вы не можете отвечать на сообщения
    Вы не можете редактировать свои сообщения
    Вы не можете удалять свои сообщения
    Вы не можете голосовать в опросах
    Вы не можете прикреплять файлы к сообщениям
    Вы можете скачивать файлы