Ссылка на приватное зеркало нашего сайта всего за 1$. Внимание количество ограничено!!!

2 сезон

iTunes

1 сезон

1

2 сезон

2 сезон

iTunes

1 сезон

RePack

30

Ultimate

ВАЖНО

ИГРА 18+

pack

RePack

MK11
pack

Забери бонус

RePack

jed

!!Акция!!

Alien_Rage

RePack

fifa19

RePack

Assassins Creed: Odyssey

RePack

NEED FOR SPEED™ PAYBACK

4 сезон

9 сезон

Бесстыжие 9 сезон

Все сериалы

все сериалы на PB.wtf

RePack

FAR CRY 5
  

Дневники Вампира / The Vampire Diaries / Сезон: 8 / Серии 1-16 из 16 [2016 г. Ужасы, фэнтези, драма, мелодрама, WEB-DLRip] MVO LostFilm pb.wtf

Дневники Вампира через торрент pb.wtf

Размер: 6.86 GB | Добавлен: 3 года 8 мес. назад | Торрент скачан:71 раз
Скачать  

23-10-2016 20:08 Дневники Вампира Скачать торрент  

Дневники Вампира / The Vampire Diaries
Год выпуска: 2016
Страна: США
Жанр: ужасы, фэнтези, триллер, драма, мелодрама, детектив
Продолжительность: ~ 00:43:00 серия
Перевод: Профессиональный (многоголосый, закадровый)

Режиссер: Маркос Сига, Роб Харди, Дэвид Фон Энкен, Дж. Миллер Тобин, Джон Беринг, Джошуа Батлер, Джон Дал, Лиз Фридлендер, Крис Грисмер

rating

В ролях: Маркос Сига, Роб Харди, Дэвид Фон Энкен, Дж. Миллер Тобин, Джон Беринг, Джошуа Батлер, Джон Дал, Лиз Фридлендер, Крис Грисмер

Описание: Мистик Фоллс все еще защищен от любой магии, люди в нем наслаждаются безопасной и беззаботной жизнью. Однако сила заклятья не распространяется на леса, окружающие город. Там, наивных туристов, может ждать встреча со всеми жуткими сверхъестественными существами, которые больше не могут проникнуть в город. Елена не способна смириться и жить дальше без возлюбленного Деймона. Потому она вынуждает ведьм давать ей зелье, которое позволяет ей видеть его призрак. Также девушка стала нападать на людей и пить их кровь, и это все очень беспокоит Кэролайн. Стефан решил жить дальше и изменил многое. Он покинул Мистик Фоллс и живет в другом городе, подальше от старых бед, там он нашел себе новую профессию и новую девушку. Новым врагом для наших героев в сериале "Дневники Вампира" стане человек по имени Трип, он руководит отрядом ополченцев и всерьез намерен сместить действующего шерифа Форбс с ее должности, поскольку она потакала сверхъестественным существам.


Качество: WEB-DLRip
Формат: AVI
Видео кодек: XviD
Аудио кодек: MP3
Видео: 720x400 (16/9), 23.976 fps, ~1 037 Kbps
Аудио#1: mp3, 2 ch, 48.0 KHz, 192 kbps





General
Complete name : D:\Загрузка\Torrent\Дневники вампира (8 сезон ) - LostFilm.TV\S08E01.Здравствуй, братец!.avi
Format : AVI
Format/Info : Audio Video Interleave
File size : 377 MiB
Duration : 42 min
Overall bit rate mode : Variable
Overall bit rate : 1 238 kb/s
Writing application : Nandub v1.0rc2
Writing library : Nandub build 1853/release

Video
ID : 0
Format : MPEG-4 Visual
Format profile : Advanced Simple@L5
Format settings, BVOP : No
Format settings, QPel : No
Format settings, GMC : No warppoints
Format settings, Matrix : Default (H.263)
Codec ID : XVID
Codec ID/Hint : XviD
Duration : 42 min
Bit rate : 1 037 kb/s
Width : 720 pixels
Height : 400 pixels
Display aspect ratio : 16:9
Frame rate : 23.976 (23976/1000) FPS
Color space : YUV
Chroma subsampling : 4:2:0
Bit depth : 8 bits
Scan type : Progressive
Compression mode : Lossy
Bits/(Pixel*Frame) : 0.150
Stream size : 315 MiB (84%)
Writing library : XviD 1.2.1 (UTC 2008-12-04)

Audio
ID : 1
Format : MPEG Audio
Format version : Version 1
Format profile : Layer 3
Mode : Joint stereo
Mode extension : MS Stereo
Codec ID : 55
Codec ID/Hint : MP3
Duration : 42 min
Bit rate mode : Variable
Bit rate : 192 kb/s
Channel(s) : 2 channels
Sampling rate : 48.0 kHz
Compression mode : Lossy
Stream size : 57.4 MiB (15%)
Alignment : Aligned on interleaves
Interleave, duration : 24 ms (0.58 video frame)
Interleave, preload duratio : 496 ms
Writing library : LAME3.97b
Encoding settings : -m j -V 4 -q 3 -lowpass 18.6 --abr 192

  • Остановить скачивание
  • Удалить старый торрент у себя из клиента (старые серии удалять не надо)
  • Скачать новый торрент и запустить его у себя в клиенте вместо старого, при этом указать клиенту путь в старую папку куда и должно происходить скачивание новых серий.

    Ваш клиент при этом должен произвести хеширование (проверку) старой папки (если не производит сам - помогите ему сделать это), и будет докачивать только те серии которых у вас ещё нет. Старые серии при этом не удаляются, а продолжают раздаваться!

    Eсли вы уже удалили старые серии, то предотвратить повторную закачку старых серий можно, отжав галочку в соответсвующих местах при запуске нового торрента. По возможности, желательно не удалять старые серии как можно дольше чтобы релизёр не столько продолжал раздавать старые серии, а смог сконцентрироваться на новых.
  • Оформление:Alex_EДобавлена 16 финальная серия (08.03.2017)Просьба перекачать торрентСериал закончен! Добавлен спецэпизод 1 pb.wtf



    Скачать Дневники Вампира через торрент http://pic.kartinco.top/images/11/vkkxt.jpg Скачать фильм Дневники Вампира через торрент бесплантно в хорошем качестве Описание: Мистик Фоллс все еще защищен от любой магии, люди в нем наслаждаются безопасной и беззаботной жизнью. Однако сила заклятья не ... 9.3 10 13
    Info! Серебряная раздача, засчитывается только 50% скачанного.
    Торрент: Зарегистрирован [2017-03-19 06:25] · скачан: 71 раз
    Статус: √ проверено
    Размер: 6.86 GB
    Как cкачать? Как скачать Дневники Вампира через торрент | qTorrent



    Последний раз редактировалось: Alex_E (2017-03-19 06:30), всего редактировалось 16 раз(а)

    28-11-2019 20:33  

    Отключить всю рекламу на сайте

    31-10-2016 07:02 Дневники Вампира Скачать торрент  

    Описание 6го сезона..pb.wtf



    06-12-2016 07:58 Дневники Вампира Скачать торрент  

    Этот сериал когда-нибудь закончится?)pb.wtf



    12-12-2016 08:24 Дневники Вампира Скачать торрент  

    zxcriter писал(а):

    Этот сериал когда-нибудь закончится?)

    это последний сезонpb.wtf



    23-01-2017 18:53 Дневники Вампира Скачать торрент  

    1-9 из 22
    Так вроде правильнее будетpb.wtf



    08-03-2017 18:39 Дневники Вампира Скачать торрент  

    их 16 всего будетpb.wtf



    14-03-2017 04:45 Дневники Вампира Скачать торрент  

    Станьте на раздачу . Попросили скачать , а скорости нет вообще.pb.wtf



    08-05-2017 18:29 Дневники Вампира Скачать торрент  

    Встаньте кто нибудь на раздачу!pb.wtf



    11-06-2019 17:48 Дневники Вампира Скачать торрент  

    нет раздачи!!!pb.wtf



      Дорогой пользователь! Огромная просьба, поблагодарите релизера, оцените раздачу и оставьте свои комментарий, если Вы скачали Дневники Вампира через торрент бесплатно! Внесите свою лепту в развитие PiratBit!
      Комментировать посты могут только пользователи прошедшие не сложную регистрацию
      Показать сообщения:    

      Дневники Вампира через торрент
      Скачать бесплатно Дневники Вампира
      Дневники Вампира скачать торрент
      Дневники Вампира смотреть онлайн
      Cкачать фильм Дневники Вампира бесплатно
      Дневники Вампира скачать торрент в хорошем качестве
      Дневники Вампира смотреть онлайн бесплатно в хорошем качестве


      Вы не можете начинать темы
      Вы не можете отвечать на сообщения
      Вы не можете редактировать свои сообщения
      Вы не можете удалять свои сообщения
      Вы не можете голосовать в опросах
      Вы не можете прикреплять файлы к сообщениям
      Вы можете скачивать файлы