Ссылка на приватное зеркало нашего сайта всего за 1$. Внимание количество ограничено!!!

2 сезон

iTunes

1 сезон

1

2 сезон

2 сезон

iTunes

1 сезон

RePack

30

Новинка

ВАЖНО

ИГРА 18+

pack

RePack

MK11
pack

Забери бонус

RePack

jed

!!Акция!!

Alien_Rage

RePack

fifa19

RePack

Assassins Creed: Odyssey

RePack

NEED FOR SPEED™ PAYBACK

4 сезон

9 сезон

Бесстыжие 9 сезон

Все сериалы

все сериалы на PB.wtf

RePack

FAR CRY 5
  

Альцион / Halcyon / Сезон 1 / Серии 1-10 из 10 (Бенджамин Арфманн / Benjamin Arfmann) [2016 , США, фантастика, WEBRip-AVC] MVO [BaibaKo] pb.wtf

Альцион через торрент pb.wtf

Размер: 651 MB | Добавлен: 4 года 1 мес. назад | Торрент скачан:13 раз
Скачать  

24-10-2016 06:47 Альцион Скачать торрент  

Альцион / Halcyon


  • Год выпуска: 2016
  • Страна: США
  • Жанр: фантастика
  • Продолжительность: 00:05:00 (Серия)
  • Перевод: Профессиональный многоголосый [BaibaKo]
  • Режиссер: Бенджамин Арфманн / Benjamin Arfmann
  • В ролях:
    Лиза Маркос, Джилл Мари Джонс, Майкл Терриоль и др.


  • Грани между виртуальной реальностью и реальным миром стираются. Расследование преступлений происходит в условиях, когда виртуальная реальность - уже часть повседневной жизни. Но что делать, когда убийства из виртуальной реальности перемещаются в реальный мир...

    Детективу Джули Довер поручают расследование первого убийства в виртуальной реальности технически продвинутого 2058 года.
  • Рейтинг:



  • Качество: WEBRip-AVC
  • Формат: :MPEG-4
  • Видео кодек: AVC
  • Аудио кодек: AC3
  • Видео: 1750 Кбит/сек, 1024*576 (16:9), в 25,000 кадров/сек, AVC
  • Аудио №1: русский 384 Кбит/сек, 48,0 КГц, 16 бит, 2 канала, AC-3 |[BaibaKo]|
  • Аудио №2: английский 384 Кбит/сек, 48,0 КГц, 16 бит, 2 канала, AC-3
  • Релиз от: GEKADOL

    Внимание! Раздача ведётся путём добавления новых серий; при каждом добавлении создаётся новый торрент. Чтобы начать докачку новой серии, пользователям необходимо сделать следующее:
    (1) остановить скачивание,
    (2) удалить старый торрент у себя из клиента (старые серии удалять не надо),
    (3) скачать новый торрент и запустить его у себя в клиенте вместо старого, при этом указать клиенту путь в старую папку куда и должно происходить скачивание новых серий.
    Ваш клиент при этом должен произвести хеширование (проверку) старой папки (если не производит сам - помогите ему сделать это), и будет докачивать только те серии которых у вас ещё нет. Старые серии при этом не удаляются, а продолжают раздаваться!
    Eсли вы уже удалили старые серии, то предотвратить повторную закачку старых серий можно, отжав галочку в соответствующих местах при запуске нового торрента. По возможности, желательно не удалять старые серии как можно дольше чтобы релизёр не столько продолжал раздавать старые серии, а смог сконцентрироваться на новых.

    Общее
    Полное имя : H:\Альцион (Halcyon 1)\Halcyon.s01e06.WEBRip-AVC.Rus.Eng.BaibaKo.tv.mp4
    Формат : MPEG-4
    Профиль формата : Base Media
    Идентификатор кодека : isom (isom/iso2/avc1/mp41)
    Размер файла : 38,0 Мбайт
    Продолжительность : 2 м. 6 с.
    Общий поток : 2523 Кбит/сек
    Программа кодирования : XviD4PSP 7.0.304 DAILY
    HDVideo : Yes
    encoding_info : MATROSKA / WEBM > MP4 Произвольный / H264 > X264 CBR 2000kbps HQ / AC3 > AC3 CBR 384kbps / AC3 > AC3 CBR 384kbps

    Видео
    Идентификатор : 1
    Формат : AVC
    Формат/Информация : Advanced Video Codec
    Профиль формата : High@L3.1
    Параметр CABAC формата : Да
    Параметр ReFrames формата : 4 кадра
    Идентификатор кодека : avc1
    Идентификатор кодека/Информация : Advanced Video Coding
    Продолжительность : 2 м. 6 с.
    Битрейт : 1750 Кбит/сек
    Номинальный битрейт : 2000 Кбит/сек
    Ширина : 1024 пикселя
    Высота : 576 пикселей
    Соотношение сторон : 16:9
    Режим частоты кадров : Постоянный
    Частота кадров : 25,000 кадров/сек
    Цветовое пространство : YUV
    Субдискретизация насыщенности : 4:2:0
    Битовая глубина : 8 бит
    Тип развёртки : Прогрессивная
    Бит/(Пиксели*Кадры) : 0.119
    Размер потока : 26,4 Мбайт (69%)
    Библиотека кодирования : x264 core 148 r2721M 72d53ab
    Настройки программы : cabac=1 / ref=3 / deblock=1:-1:-1 / analyse=0x3:0x133 / me=hex / subme=7 / psy=1 / psy_rd=1.00:0.20 / mixed_ref=1 / me_range=16 / chroma_me=1 / trellis=1 / 8x8dct=1 / cqm=0 / deadzone=21,11 / fast_pskip=1 / chroma_qp_offset=-3 / threads=5 / lookahead_threads=1 / sliced_threads=0 / nr=0 / decimate=1 / interlaced=0 / bluray_compat=0 / constrained_intra=0 / bframes=3 / b_pyramid=2 / b_adapt=2 / b_bias=0 / direct=3 / weightb=1 / open_gop=0 / weightp=2 / keyint=250 / keyint_min=25 / scenecut=40 / intra_refresh=0 / rc_lookahead=40 / rc=cbr / mbtree=1 / bitrate=2000 / ratetol=1.0 / qcomp=0.60 / qpmin=0 / qpmax=69 / qpstep=4 / vbv_maxrate=2000 / vbv_bufsize=2000 / nal_hrd=none / filler=0 / ip_ratio=1.40 / aq=1:1.00

    Аудио #1
    Идентификатор : 2
    Формат : AC-3
    Формат/Информация : Audio Coding 3
    Расширение режима : CM (complete main)
    Параметр Endianness формата : Big
    Идентификатор кодека : ac-3
    Продолжительность : 2 м. 6 с.
    Вид битрейта : Постоянный
    Битрейт : 384 Кбит/сек
    Каналы : 2 канала
    Расположение каналов : Front: L R
    Частота : 48,0 КГц
    Частота кадров : 31,250 кадров/сек (1536 spf)
    Битовая глубина : 16 бит
    Метод сжатия : С потерями
    Размер потока : 5,79 Мбайт (15%)
    Язык : Russian
    Default : Да
    Alternate group : 1

    Аудио #2
    Идентификатор : 3
    Формат : AC-3
    Формат/Информация : Audio Coding 3
    Расширение режима : CM (complete main)
    Параметр Endianness формата : Big
    Идентификатор кодека : ac-3
    Продолжительность : 2 м. 6 с.
    Вид битрейта : Постоянный
    Битрейт : 384 Кбит/сек
    Каналы : 2 канала
    Расположение каналов : Front: L R
    Частота : 48,0 КГц
    Частота кадров : 31,250 кадров/сек (1536 spf)
    Битовая глубина : 16 бит
    Метод сжатия : С потерями
    Размер потока : 5,78 Мбайт (15%)
    Язык : English
    Default : Нет
    Alternate group : 1



    Скриншоты:


    Раздача ведётся путём добавления новых серий. Добавлена 10 серия (28.10.2016).Просьба перекачать торрент файл.

    pb.wtf



  • Скачать Альцион через торрент http://pic1.kartinco.top/images/11/luo9p.jpg Скачать фильм Альцион через торрент бесплантно в хорошем качестве qw.png Грани между виртуальной реальностью и реальным миром стираются. Расследование преступлений происходит в условиях, когда ... 5.5 10 2
    Info! Золотая раздача, скачанное не засчитывается.
    Торрент: Зарегистрирован [2016-10-28 01:37] · скачан: 13 раз
    Статус: √ проверено
    Размер: 651 MB
    Как cкачать? Как скачать Альцион через торрент | qTorrent



    Последний раз редактировалось: GEKADOL (2016-10-28 01:37), всего редактировалось 3 раз(а)

    28-11-2019 20:33  

    Отключить всю рекламу на сайте

    24-10-2016 08:35 Альцион Скачать торрент  

    Рекламы больше чем фильма!!!pb.wtf



    24-10-2016 10:33 Альцион Скачать торрент  

    Si7ver писал(а):

    Рекламы больше чем фильма!!!

    виртуальной?pb.wtf



    26-10-2016 06:06 Альцион Скачать торрент  

    вот!!! сразу всё понятно: куда заходить и на что ставить, какие выплаты)))), а то в других сериалах лажа какая-то - никто ничего не говорит. и друзья сразу все вспомнили - в вайбер всё пишуть и пишуть.
    А по существу - серии короткие3-5 мин. глядицо легко. но замысел пока не понятен на 6 серии.pb.wtf



    14-04-2017 14:55 Альцион Скачать торрент  

    ссылка на кинопописк неверная.pb.wtf



      Дорогой пользователь! Огромная просьба, поблагодарите релизера, оцените раздачу и оставьте свои комментарий, если Вы скачали Альцион через торрент бесплатно! Внесите свою лепту в развитие PiratBit!
      Комментировать посты могут только пользователи прошедшие не сложную регистрацию
      Показать сообщения:    

      Альцион через торрент
      Скачать бесплатно Альцион
      Альцион скачать торрент
      Альцион смотреть онлайн
      Cкачать фильм Альцион бесплатно
      Альцион скачать торрент в хорошем качестве
      Альцион смотреть онлайн бесплатно в хорошем качестве


      Вы не можете начинать темы
      Вы не можете отвечать на сообщения
      Вы не можете редактировать свои сообщения
      Вы не можете удалять свои сообщения
      Вы не можете голосовать в опросах
      Вы не можете прикреплять файлы к сообщениям
      Вы можете скачивать файлы