Ссылка на приватное зеркало нашего сайта всего за 1$. Внимание количество ограничено!!!

2 сезон

iTunes

1 сезон

1

iTunes

iTunes

iTunes

1 сезон

RePack

30

ИГРА 18+

pack

ВАЖНО

!!Акция!!

Alien_RageХит недели

RePack

MK11
pack

Забери бонус

RePack

jed

!!Акция!!

Alien_Rage

RePack

fifa19

RePack

Assassins Creed: Odyssey

RePack

NEED FOR SPEED™ PAYBACK

4 сезон

9 сезон

Бесстыжие 9 сезон

Все сериалы

все сериалы на PB.wtf

RePack

FAR CRY 5
  

Музей восковых фигур 2: Затерянные во времени / Waxwork 2: Lost in Time (Энтони Хикокс) [1992, ужасы, фантастика, фэнтези, комедия, BDRip 720p by msltel] MVO, 2 x AVO pb.wtf

Музей восковых фигур 2: Затерянные во времени через торрент pb.wtf

Размер: 5.07 GB | Добавлен: 4 года назад | Торрент скачан:81 раз
Скачать  

24-10-2016 06:49 Музей восковых фигур 2: Затерянные во времени Скачать торрент  

Название: Музей восковых фигур 2: Затерянные во времени
Оригинальное название: Waxwork 2: Lost in Time
Год выпуска: 1992
Страна: США
Жанр: ужасы, фантастика, фэнтези, комедия
Продолжительность: 01:44:17
Перевод: профессиональный многоголосый, авторский

Режиссёр: Энтони Хикокс

В ролях: Зак Гэллиган, Моника Шнарре, Мартин Кемп, Брюс Кэмпбелл, Майкл Де Барр, Джим Метцлер, Софи Уорд, Марина Сиртис, Билли Кэйн, Джо Бэйкер, Александр Годунов, Дэвид Кэрредин

Описание: Музей восковых фигур и его зловещие обитатели уничтожены в пламени пожара. Но так ли это? Выбравшись из горящего здания, Марк и Сара не заметили, как отрубленная рука увязалась за ними и жестоко убила её отчима. Но никто не верит рассказам о Музее восковых фигур, и Саре предъявлено обвинение в убийстве. Тогда Марк и Сара через временной портал проникают в другие миры и измерения, где вступают в сражения с многочисленными силами зла — от Франкенштейна и Джека-Потрошителя до вампиров и живых мертвецов. Только так они смогут доказать невиновность Сары...



Качество: BDRip 720p Сравнение с исходником
Формат: MKV
Видео: MPEG-4 AVC, 6191 Кбит/с, 1280x694, 23,976 кадра/с
Аудио 1: русский, AC3, 192 kbps, 2 ch, 48 kHz [профессиональный многоголосый, ТНТ]
Аудио 2: русский, AC3, 192 kbps, 2 ch, 48 kHz [авторский, Сергей Визгунов]
Аудио 3: русский, AC3, 192 kbps, 2 ch, 48 kHz [авторский, Андрей Гаврилов]
Аудио 4: английский, AC3, 192 kbps, 2 ch, 48 kHz [оригинал]
Субтитры: английские
Общее
Уникальный идентификатор : 229721500488775200683277866876649426780 (0xACD2C06D3059B787BC0C97D4E9554F5C)
Полное имя : D:\Video\Музей восковых фигур 2.1992.BDRip.720p.mkv
Формат : Matroska
Версия формата : Version 4 / Version 2
Размер файла : 5,07 Гбайт
Продолжительность : 1 ч. 44 м.
Общий поток : 6961 Кбит/сек
Дата кодирования : UTC 2016-10-23 13:28:08
Программа кодирования : mkvmerge v8.2.0 ('World of Adventure') 64bit
Библиотека кодирования : libebml v1.3.1 + libmatroska v1.4.2

Видео
Идентификатор : 1
Формат : AVC
Формат/Информация : Advanced Video Codec
Профиль формата : High@L4.1
Параметр CABAC формата : Да
Параметр ReFrames формата : 9 кадров
Идентификатор кодека : V_MPEG4/ISO/AVC
Продолжительность : 1 ч. 44 м.
Битрейт : 6191 Кбит/сек
Ширина : 1280 пикселей
Высота : 694 пикселя
Соотношение сторон : 1,85:1
Режим частоты кадров : Постоянный
Частота кадров : 23,976 (24000/1001) кадра/сек
Цветовое пространство : YUV
Субдискретизация насыщенности : 4:2:0
Битовая глубина : 8 бит
Тип развёртки : Прогрессивная
Бит/(Пиксели*Кадры) : 0.291
Размер потока : 4,51 Гбайт (89%)
Библиотека кодирования : x264 core 146 r2538 121396c
Настройки программы : cabac=1 / ref=9 / deblock=1:-3:-3 / analyse=0x3:0x113 / me=umh / subme=10 / psy=1 / psy_rd=1.00:0.15 / mixed_ref=1 / me_range=32 / chroma_me=1 / trellis=2 / 8x8dct=1 / cqm=0 / deadzone=21,11 / fast_pskip=0 / chroma_qp_offset=-3 / threads=6 / lookahead_threads=1 / sliced_threads=0 / nr=0 / decimate=1 / interlaced=0 / bluray_compat=0 / constrained_intra=0 / bframes=10 / b_pyramid=2 / b_adapt=2 / b_bias=0 / direct=1 / weightb=1 / open_gop=0 / weightp=2 / keyint=230 / keyint_min=23 / scenecut=40 / intra_refresh=0 / rc_lookahead=40 / rc=crf / mbtree=0 / crf=19.5 / qcomp=0.60 / qpmin=0 / qpmax=69 / qpstep=4 / vbv_maxrate=40000 / vbv_bufsize=50000 / crf_max=0.0 / nal_hrd=none / filler=0 / ip_ratio=1.40 / pb_ratio=1.30 / aq=1:1.00
Язык : English
Default : Да
Forced : Нет

Аудио #1
Идентификатор : 2
Формат : AC-3
Формат/Информация : Audio Coding 3
Расширение режима : CM (complete main)
Параметр Endianness формата : Big
Идентификатор кодека : A_AC3
Продолжительность : 1 ч. 44 м.
Вид битрейта : Постоянный
Битрейт : 192 Кбит/сек
Каналы : 2 канала
Расположение каналов : Front: L R
Частота : 48,0 КГц
Частота кадров : 31,250 кадров/сек (1536 spf)
Метод сжатия : С потерями
Размер потока : 143 Мбайт (3%)
Заголовок : MVO (THT)
Язык : Russian
Default : Да
Forced : Нет

Аудио #2
Идентификатор : 3
Формат : AC-3
Формат/Информация : Audio Coding 3
Расширение режима : CM (complete main)
Параметр Endianness формата : Big
Идентификатор кодека : A_AC3
Продолжительность : 1 ч. 44 м.
Вид битрейта : Постоянный
Битрейт : 192 Кбит/сек
Каналы : 2 канала
Расположение каналов : Front: L R
Частота : 48,0 КГц
Частота кадров : 31,250 кадров/сек (1536 spf)
Метод сжатия : С потерями
Размер потока : 143 Мбайт (3%)
Заголовок : AVO (Сергей Визгунов)
Язык : Russian
Default : Нет
Forced : Нет

Аудио #3
Идентификатор : 4
Формат : AC-3
Формат/Информация : Audio Coding 3
Расширение режима : CM (complete main)
Параметр Endianness формата : Big
Идентификатор кодека : A_AC3
Продолжительность : 1 ч. 44 м.
Вид битрейта : Постоянный
Битрейт : 192 Кбит/сек
Каналы : 2 канала
Расположение каналов : Front: L R
Частота : 48,0 КГц
Частота кадров : 31,250 кадров/сек (1536 spf)
Метод сжатия : С потерями
Размер потока : 143 Мбайт (3%)
Заголовок : AVO (Андрей Гаврилов)
Язык : Russian
Default : Нет
Forced : Нет

Аудио #4
Идентификатор : 5
Формат : AC-3
Формат/Информация : Audio Coding 3
Расширение режима : CM (complete main)
Параметр Endianness формата : Big
Идентификатор кодека : A_AC3
Продолжительность : 1 ч. 44 м.
Вид битрейта : Постоянный
Битрейт : 192 Кбит/сек
Каналы : 2 канала
Расположение каналов : Front: L R
Частота : 48,0 КГц
Частота кадров : 31,250 кадров/сек (1536 spf)
Метод сжатия : С потерями
Размер потока : 143 Мбайт (3%)
Заголовок : original
Язык : English
Default : Нет
Forced : Нет

Текст
Идентификатор : 6
Формат : UTF-8
Идентификатор кодека : S_TEXT/UTF8
Идентификатор кодека/Информация : UTF-8 Plain Text
Продолжительность : 1 ч. 42 м.
Битрейт : 44 бит/сек
Count of elements : 1293
Размер потока : 33,5 Кбайт (0%)
Заголовок : английские
Язык : English
Default : Нет
Forced : Нет
pb.wtf



Скачать Музей восковых фигур 2: Затерянные во времени через торрент http://s019.radikal.ru/i619/1610/a9/8ad3bb50b977.jpg Скачать фильм Музей восковых фигур 2: Затерянные во времени через торрент бесплантно в хорошем качестве Описание: Музей восковых фигур и его зловещие обитатели уничтожены в пламени пожара. Но так ли это? Выбравшись из горящего здания, Марк и ... 10 10 10
Info! Золотая раздача, скачанное не засчитывается.
Торрент: Зарегистрирован [2016-10-24 06:49] · скачан: 81 раз
Статус: √ проверено
Размер: 5.07 GB
Как cкачать? Как скачать Музей восковых фигур 2: Затерянные во времени через торрент | qTorrent

% Раздел Тема Автор DL S | L
Фильмы [HD 720p, 1080p] (Хороший звук DUB, MVO) [ 13.85 GB ] Музей восковых фигур 2: Затерянные во времени / Waxwork 2: Lost in Time [1992 BDRip 1080p by msltel] MVO 2 x AVO msltel Скачать
1 | 0

28-11-2019 20:33  

Отключить всю рекламу на сайте

24-10-2016 07:00 Музей восковых фигур 2: Затерянные во времени Скачать торрент  

Эш (Брюс Кэмпбелл) и тут мертвецов искал )))pb.wtf



24-10-2016 20:04 Музей восковых фигур 2: Затерянные во времени Скачать торрент  

И здесь кривлялся не по детски :) Или у меня такой вкус или фильм недооцененpb.wtf



    Дорогой пользователь! Огромная просьба, поблагодарите релизера, оцените раздачу и оставьте свои комментарий, если Вы скачали Музей восковых фигур 2: Затерянные во времени через торрент бесплатно! Внесите свою лепту в развитие PiratBit!
    Комментировать посты могут только пользователи прошедшие не сложную регистрацию
    Показать сообщения:    

    Музей восковых фигур 2: Затерянные во времени через торрент
    Скачать бесплатно Музей восковых фигур 2: Затерянные во времени
    Музей восковых фигур 2: Затерянные во времени скачать торрент
    Музей восковых фигур 2: Затерянные во времени смотреть онлайн
    Cкачать фильм Музей восковых фигур 2: Затерянные во времени бесплатно
    Музей восковых фигур 2: Затерянные во времени скачать торрент в хорошем качестве
    Музей восковых фигур 2: Затерянные во времени смотреть онлайн бесплатно в хорошем качестве


    Вы не можете начинать темы
    Вы не можете отвечать на сообщения
    Вы не можете редактировать свои сообщения
    Вы не можете удалять свои сообщения
    Вы не можете голосовать в опросах
    Вы не можете прикреплять файлы к сообщениям
    Вы можете скачивать файлы