новый адрес
Ссылка на приватное зеркало всего за 1$. Внимание количество ограничено!!!

iTunes

1+1

iTunes

мы

iTunes

1

iTunes

Чернобыль

iTunes

Ральф против интернета

Лицензия

ПШазам

Лицензия

Оно 2

Лицензия

30
pack

Вам бонус

ВАЖНО

!!Акция!!

Alien_RageХит недели

RePack

Resident Evil 21

ИГРА 18+

pack

RePack

jed

!!Акция!!

Alien_Rage

RePack

fifa19

RePack

Assassins Creed: Odyssey

RePack

NEED FOR SPEED™ PAYBACK

3 сезон

9 сезон

Бесстыжие 9 сезон

Все сериалы

все сериалы на PB.wtf

RePack

FAR CRY 5
Ребята, катастрофически не хватает 1900р. для оплаты серверов за Октябрь (всвязи с блокировками трафик упал в 3 раза), 1-2р., выручайте.
  

Зеленый фургон (2 серии) (Александр Павловский ) [1983, драма, приключения, DVDRip-AVC] pb.wtf

Зеленый фургон через торрент pb.wtf

Размер: 2.27 GB | Добавлен: 3 года назад | Торрент скачан:134 раза
Скачать  

24-10-2016 16:07 Зеленый фургон Скачать торрент  

Зеленый фургон (2 серии)

Год выпуска: 1983
Страна: СССР
Жанр: драма, приключения

Продолжительность: 02:16:52 (01:07:24 + 01:09:28)
Перевод: Не требуется [Русский]
Субтитры: русский
Режиссер: Александр Павловский
В ролях: Дмитрий Харатьян (Володя Патрикеев / вокал), Александр Демьяненко (Виктор Прокофьевич Шестаков), Борислав Брондуков (Мыкола Грищенко, сельский милиционер), Александр Соловьев («Красавчик», бывший рыбак, конокрад), Регимантас Адомайтис («Червень», адвокат), Константин Григорьев («Начоперот»), Эдуард Марцевич (профессор), Виктор Ильичев (Федька «Бык»), Екатерина Дурова (Катька Верцинская (Жарь)), Армен Джигарханян (рассказчик, озвучка), Лев Перфилов (наводчик), Юрий Дубровин (красноармеец Федорков)
Описание:
Приключенческий фильм по мотивам одноименной повести Александра Козачинского. Это ностальгический, лиричный и пронзительный фильм о послереволюционной Одессе. О мальчике - гимназисте, мечтающем о карьере Шерлока Холмса и попадающем в тот завораживающий кошмар, который принято называть горнилом революции.
Здесь причудливо и органично сочетаются юмор и романтика, жестокая правда и эксцентрика — и пронзительным серебряным горном звучит голос молодого Дмитрия Харатьяна, сыгравшего в этом фильме свою лучшую роль.

Качество: DVDRip-AVC
Формат: MKV
Видео: AVC, 704@768x570 (4:3), 2068 kbps, 25 fps, 0,206 bpp
Аудио: русский / AC3 / 2.0 / 48 kHz / 256 kbps /
Навигация по главам: есть

General
Unique ID Зеленый фургон.1983.mkv
Format : Matroska
Format version : Version 2
File size : 2.27 GiB
Duration : 2 h 16 min
Overall bit rate : 2 372 kb/s
Encoded date : UTC 2016-10-15 18:44:09
Writing application : mkvmerge v5.8.0 ('No Sleep / Pillow') built on Sep 2 2012 15:37:04
Writing library : libebml v1.2.3 + libmatroska v1.3.0
Comment : DVDRip-AVC
Encoded by : george$t®
Originally released : October 10th 2016

Video
ID : 1
Format : AVC
Format/Info : Advanced Video Codec
Format profile : High@L4.1
Format settings, CABAC : Yes
Format settings, ReFrames : 16 frames
Codec ID : V_MPEG4/ISO/AVC
Duration : 2 h 16 min
Bit rate : 2 068 kb/s
Width : 704 pixels
Height : 570 pixels
Display aspect ratio : 4:3
Frame rate mode : Constant
Frame rate : 25.000 FPS
Color space : YUV
Chroma subsampling : 4:2:0
Bit depth : 8 bits
Scan type : Progressive
Bits/(Pixel*Frame) : 0.206
Stream size : 1.98 GiB (87%)
Title : Зеленый фургон.1983
Writing library : x264 core 148 r2721kMod 72d53ab
Encoding settings : cabac=1 / ref=16 / deblock=1:-1:0 / analyse=0x3:0x133 / me=umh / subme=10 / psy=1 / fade_compensate=0.00 / psy_rd=0.80:0.10 / mixed_ref=1 / me_range=32 / chroma_me=1 / trellis=2 / 8x8dct=1 / cqm=0 / deadzone=21,11 / fast_pskip=1 / chroma_qp_offset=-3 / threads=12 / lookahead_threads=2 / sliced_threads=0 / nr=0 / decimate=1 / interlaced=0 / bluray_compat=0 / constrained_intra=0 / fgo=0 / bframes=8 / b_pyramid=2 / b_adapt=2 / b_bias=0 / direct=3 / weightb=1 / open_gop=0 / weightp=2 / keyint=250 / keyint_min=25 / scenecut=40 / intra_refresh=0 / rc_lookahead=60 / rc=crf / mbtree=0 / crf=18.4000 / qcomp=0.60 / qpmin=0 / qpmax=69 / qpstep=4 / vbv_maxrate=50000 / vbv_bufsize=62500 / crf_max=0.0 / nal_hrd=none / filler=0 / ip_ratio=1.45 / pb_ratio=1.30 / aq=3:0.90 / zones=72446,86115,crf=17.6/126205,127140,crf=17.6/130614,133973,crf=17.6/154295,179308,crf=17.6/179309,184753,crf=17.6/184754,185350,crf=18.1
Language : Russian
Default : Yes
Forced : No
Color range : Limited
Color primaries : BT.601 PAL
Transfer characteristics : BT.470 System B, BT.470 System G
Matrix coefficients : BT.601

Audio
ID : 2
Format : AC-3
Format/Info : Audio Coding 3
Mode extension : CM (complete main)
Format settings, Endianness : Big
Codec ID : A_AC3
Duration : 2 h 16 min
Bit rate mode : Constant
Bit rate : 256 kb/s
Channel(s) : 2 channels
Channel positions : Front: L R
Sampling rate : 48.0 kHz
Frame rate : 31.250 FPS (1536 spf)
Compression mode : Lossy
Stream size : 251 MiB (11%)
Title : Оригинал: AC-3; 16 bit 48 Khz; 2.0ch 256 Kbps; CBR
Language : Russian
Default : Yes
Forced : No

Text
ID : 3
Format : UTF-8
Codec ID : S_TEXT/UTF8
Codec ID/Info : UTF-8 Plain Text
Title : Субтитры русские
Language : Russian
Default : No
Forced : No

Menu
00:00:00.000 : ru:Первая серия
01:07:24.680 : ru:Вторая серия
pb.wtf



Скачать Зеленый фургон через торрент http://i2.imageban.ru/out/2016/10/24/e4fae8b08efca9726fa0e3e483b21005.jpg Скачать фильм Зеленый фургон через торрент бесплантно в хорошем качестве Описание: Приключенческий фильм по мотивам одноименной повести Александра Козачинского. Это ностальгический, лиричный и пронзительный фильм ... 10 10 9
Info! Золотая раздача, скачанное не засчитывается.
Торрент: Зарегистрирован [2016-10-24 16:07] · скачан: 134 раз
Статус: √ проверено
Размер: 2.27 GB
Как cкачать? Как скачать Зеленый фургон через торрент | qTorrent

% Раздел Тема Автор DL S | L
Кино СССР [ 1.09 GB ] Зеленый фургон [1959 СССР DVDRip-AVC от AVP Studio] AVP Studio Скачать
1 | 0
Кино СССР [ 745 MB ] Зеленый фургон [1959 СССР DVDRip от AVP Studio] AVP Studio Скачать
1 | 0
Кино СССР [ 1.09 GB ] Зеленый фургон [1959 СССР DVDRip от AVP Studio] AVP Studio Скачать
1 | 0


>> Регистрируемся здесь <<






Отзывы и комментарии о схеме читаем и пишем здесь: ---> Отзывы и комментарии о схеме

Новые благодарочки в телеграм довольных пользователей:
скриншот   скриншот   скриншот   скриншот   скриншот
    Дорогой пользователь! Огромная просьба, поблагодарите релизера, оцените раздачу и оставьте свои комментарий, если Вы скачали Зеленый фургон через торрент бесплатно! Внесите свою лепту в развитие PiratBit!
    Комментировать посты могут только пользователи прошедшие не сложную регистрацию
    Показать сообщения:    

    Зеленый фургон через торрент
    Скачать бесплатно Зеленый фургон
    Зеленый фургон скачать торрент
    Зеленый фургон смотреть онлайн
    Cкачать фильм Зеленый фургон бесплатно
    Зеленый фургон скачать торрент в хорошем качестве
    Зеленый фургон смотреть онлайн бесплатно в хорошем качестве


    Вы не можете начинать темы
    Вы не можете отвечать на сообщения
    Вы не можете редактировать свои сообщения
    Вы не можете удалять свои сообщения
    Вы не можете голосовать в опросах
    Вы не можете прикреплять файлы к сообщениям
    Вы можете скачивать файлы