Ссылка на приватное зеркало нашего сайта всего за 1$. Внимание количество ограничено!!!

2 сезон

iTunes

1 сезон

1

iTunes

iTunes

iTunes

1 сезон

RePack

30

ИГРА 18+

pack

ВАЖНО

!!Акция!!

Alien_RageХит недели

RePack

MK11
pack

Забери бонус

RePack

jed

!!Акция!!

Alien_Rage

RePack

fifa19

RePack

Assassins Creed: Odyssey

RePack

NEED FOR SPEED™ PAYBACK

4 сезон

9 сезон

Бесстыжие 9 сезон

Все сериалы

все сериалы на PB.wtf

RePack

FAR CRY 5
  

Барби и космическое приключение / Barbie: Star Light Adventure (Andrew Tan, Майкл Гогуэн) [2016, мультфильм, семейный, HDRip, Дублированный [iTunes] pb.wtf

Барби и космическое приключение через торрент pb.wtf

Размер: 697 MB | Добавлен: 4 года назад | Торрент скачан:125 раз
Скачать  

24-10-2016 20:50 Барби и космическое приключение Скачать торрент  

Барби и космическое приключение / Barbie: Star Light Adventure


Год выпуска: 2016
Страна: США
Жанр: мультфильм, семейный
Продолжительность: 01:19:27
Перевод: Дублированный [iTunes]
Режиссер: Andrew Tan, Майкл Гогуэн
В ролях:

Erica Lindbeck (Barbie, озвучка), Робби Дэймонд (Leo, озвучка), Кимберли Вудс (Sal-Lee, озвучка), Сара Энн Уильямс (Sheena / Kareena / Sprites, озвучка), Michael Chandler (Dad, озвучка), Дуайт Шульц (Constantine, озвучка), Бен Бледсо (Artemis, озвучка), Джонатан Липов (Starlian, озвучка), Люсьен Додж (Pupcorn, озвучка), Лаура Пост (рассказчик, озвучка), Kayta Thomas, Джелани Имани
Описание:
Увлекательный мультфильм о невероятных приключениях Барби в далеком будущем. Красавица живет на сказочной планете с отцом — космическим летчиком, и весело проводит время с питомцем — котом по кличке Попкорн. Она ловко рассекает воздушные просторы на своем флайборде и мечтает о путешествиях в космосе. Однажды папа Барби получает тревожное сообщение: звезды в Галактике постепенно угасают, поэтому король планеты собирает команду, чтобы снова зажечь светила. Для участия в этом важном и опасном задании Совет короля выбрал Барби, потому что подданные уверены, что она — настоящий лидер и звездная принцесса. Теперь отважной девушке предстоит исполнить миссию: исследовать новый мир и достичь центра Галактики, чтобы спасти звезды. На помощь ей придут новые друзья-космонавты и невиданные фантастические создания.
Мировая премьера: 12 августа 2016

Качество: HDRip Rip by PsYcho

Формат: AVI
Видео: MPEG-4 Visual ASP, 720x404 (16:9), 1032 kbps, 23.976 fps, 0.148 bpp
Аудио: AC3 / 2.0 / 48 kHz / 192 kbps /


Код:

Video
ID                                       : 1
Format                                   : MPEG-4 Visual
Format profile                           : Advanced Simple@L5
Format settings, BVOP                    : 2
Format settings, QPel                    : No
Format settings, GMC                     : No warppoints
Format settings, Matrix                  : Default (H.263)
Codec ID                                 : V_MPEG4/ISO/ASP
Codec ID/Info                            : Advanced Simple Profile
Duration                                 : 1 h 19 min
Bit rate                                 : 1 032 kb/s
Width                                    : 720 pixels
Height                                   : 404 pixels
Display aspect ratio                     : 16:9
Frame rate mode                          : Constant
Frame rate                               : 23.976 (24000/1001) FPS
Color space                              : YUV
Chroma subsampling                       : 4:2:0
Bit depth                                : 8 bits
Scan type                                : Progressive
Compression mode                         : Lossy
Bits/(Pixel*Frame)                       : 0.148
Stream size                              : 587 MiB (84%)
Writing library                          : XviD 67
Default                                  : Yes
Forced                                   : No

Audio
ID                                       : 2
Format                                   : AC-3
Format/Info                              : Audio Coding 3
Mode extension                           : CM (complete main)
Format settings, Endianness              : Big
Codec ID                                 : A_AC3
Duration                                 : 1 h 19 min
Bit rate mode                            : Constant
Bit rate                                 : 192 kb/s
Channel(s)                               : 2 channels
Channel positions                        : Front: L R
Sampling rate                            : 48.0 kHz
Frame rate                               : 31.250 FPS (1536 spf)
Compression mode                         : Lossy
Stream size                              : 109 MiB (16%)
Default                                  : Yes
Forced                                   : No


© Оформление by White Smoke pb.wtf



Скачать Барби и космическое приключение через торрент http://i2.imageban.ru/out/2016/10/24/79bfb123ff37f9e5a1f71dba2f3ac72c.jpg Скачать фильм Барби и космическое приключение через торрент бесплантно в хорошем качестве Описание: Увлекательный мультфильм о невероятных приключениях Барби в далеком будущем. Красавица живет на сказочной планете с отцом — ... 7.8 10 4
Торрент: Зарегистрирован [2016-10-24 20:50] · скачан: 125 раз
Статус: √ проверено
Размер: 697 MB
Как cкачать? Как скачать Барби и космическое приключение через торрент | qTorrent

28-11-2019 20:33  

Отключить всю рекламу на сайте

    Дорогой пользователь! Огромная просьба, поблагодарите релизера, оцените раздачу и оставьте свои комментарий, если Вы скачали Барби и космическое приключение через торрент бесплатно! Внесите свою лепту в развитие PiratBit!
    Комментировать посты могут только пользователи прошедшие не сложную регистрацию
    Показать сообщения:    

    Барби и космическое приключение через торрент
    Скачать бесплатно Барби и космическое приключение
    Барби и космическое приключение скачать торрент
    Барби и космическое приключение смотреть онлайн
    Cкачать фильм Барби и космическое приключение бесплатно
    Барби и космическое приключение скачать торрент в хорошем качестве
    Барби и космическое приключение смотреть онлайн бесплатно в хорошем качестве


    Вы не можете начинать темы
    Вы не можете отвечать на сообщения
    Вы не можете редактировать свои сообщения
    Вы не можете удалять свои сообщения
    Вы не можете голосовать в опросах
    Вы не можете прикреплять файлы к сообщениям
    Вы можете скачивать файлы