Ссылка на приватное зеркало нашего сайта всего за 1$. Внимание количество ограничено!!!

2 сезон

iTunes

1 сезон

1

2 сезон

2 сезон

iTunes

1 сезон

RePack

30

Ultimate

ВАЖНО

ИГРА 18+

pack

RePack

MK11
pack

Забери бонус

RePack

jed

!!Акция!!

Alien_Rage

RePack

fifa19

RePack

Assassins Creed: Odyssey

RePack

NEED FOR SPEED™ PAYBACK

4 сезон

9 сезон

Бесстыжие 9 сезон

Все сериалы

все сериалы на PB.wtf

RePack

FAR CRY 5
  

В поисках Дори / Finding Dory (Эндрю Стэнтон , Энгус МакЛэйн ) [2016, мультфильм, комедия, приключения, WEB-DL 1080p] Дубляж - [Лицензия / iTunes] pb.wtf

В поисках Дори через торрент pb.wtf

Размер: 3.99 GB | Добавлен: 4 года 1 мес. назад | Торрент скачан:1793 раза
Скачать  

25-10-2016 08:05 В поисках Дори Скачать торрент  

В поисках Дори / Finding Dory

Год выпуска: 2016
Страна: США
Жанр: мультфильм, комедия, приключения, семейный

Продолжительность: 01:37:02
Перевод: Дубляж - [Лицензия / iTunes]
Субтитры: русские (iTunes), английские (iTunes)
Режиссер: Эндрю Стэнтон , Энгус МакЛэйн
В ролях:

Эллен ДеДженерес (Dory, озвучка), Альберт Брукс (Marlin, озвучка), Эд О’Нил (Hank, озвучка), Кэйтлин Олсон (Destiny, озвучка), Хайден Роуленс (Nemo, озвучка), Тай Бурелл (Bailey, озвучка), Дайан Китон (Jenny, озвучка), Юджин Леви (Charlie, озвучка), Слоун Мюррэй (Young Dory, озвучка), Идрис Эльба (Fluke, озвучка), Доминик Уэст (Rudder, озвучка), Боб Питерсон (Mr. Ray, озвучка)
Описание:
Дори - синяя доброжелательная рыбка-хирург, страдающая провалами в памяти. Она упорно стремится избавиться от своего недуга и найти свою семью.
Доп. информация: Локализованный русский видеоряд
Рейтинг:

MPAA: PG - Рекомендуется присутствие родителей
Качество: WEB-DL 1080p
Формат: MKV
Видео: AVC, 1920x1080 (16:9), 4994 kbps, 23,976 fps, 0,100 bpp
Аудио №1: русский / AC3 / 5.1 / 48 kHz / 384 kbps / |iTunes|
Аудио №2: английский / AC3 / 5.1 / 48 kHz / 384 kbps /
Навигация по главам: есть
Релиз от:
General
Unique ID : 201748882662913320620239771293802380419 (0x97C76BE346D58BB5A78D97FBF99D3C83)
Complete name : E:\Finding.Dory.2016.1080p.WEB-DL.Rus.Eng.HDCLUB.mkv
Format : Matroska
Format version : Version 2
File size : 3.99 GiB
Duration : 1 h 37 min
Overall bit rate : 5 879 kb/s
Movie name : Finding Dory (2016) - Release for HDCLUB
Encoded date : UTC 2016-10-24 20:51:46
Writing application : mkvmerge v3.4.0 ('Rapunzel') built on May 15 2010 09:38:20
Writing library : libebml v0.8.0 + libmatroska v0.9.0
Cover : Yes
Attachments : cover_land.jpg / small_cover.jpg / small_cover_land.jpg / cover.jpg

Video
ID : 1
Format : AVC
Format/Info : Advanced Video Codec
Format profile : High@L4
Format settings, CABAC : Yes
Format settings, ReFrames : 4 frames
Codec ID : V_MPEG4/ISO/AVC
Duration : 1 h 37 min
Bit rate : 4 994 kb/s
Width : 1 920 pixels
Height : 1 080 pixels
Display aspect ratio : 16:9
Frame rate mode : Constant
Frame rate : 23.976 (24000/1001) FPS
Color space : YUV
Chroma subsampling : 4:2:0
Bit depth : 8 bits
Scan type : Progressive
Bits/(Pixel*Frame) : 0.100
Stream size : 3.39 GiB (85%)
Title : Finding Dory (2016) - Release for HDCLUB
Language : English
Default : Yes
Forced : No
Color range : Limited
Color primaries : BT.709
Transfer characteristics : BT.709
Matrix coefficients : BT.709

Audio #1
ID : 2
Format : AC-3
Format/Info : Audio Coding 3
Mode extension : CM (complete main)
Format settings, Endianness : Big
Codec ID : A_AC3
Duration : 1 h 37 min
Bit rate mode : Constant
Bit rate : 384 kb/s
Channel(s) : 6 channels
Channel positions : Front: L C R, Side: L R, LFE
Sampling rate : 48.0 kHz
Frame rate : 31.250 FPS (1536 spf)
Compression mode : Lossy
Stream size : 267 MiB (7%)
Title : AC3 5.1 @ 384 kbps - DUB, iTunes
Language : Russian
Default : Yes
Forced : No

Audio #2
ID : 3
Format : AC-3
Format/Info : Audio Coding 3
Mode extension : CM (complete main)
Format settings, Endianness : Big
Codec ID : A_AC3
Duration : 1 h 37 min
Bit rate mode : Constant
Bit rate : 384 kb/s
Channel(s) : 6 channels
Channel positions : Front: L C R, Side: L R, LFE
Sampling rate : 48.0 kHz
Frame rate : 31.250 FPS (1536 spf)
Compression mode : Lossy
Stream size : 267 MiB (7%)
Title : AC3 5.1 @ 384 kbps
Language : English
Default : No
Forced : No

Text #1
ID : 4
Format : UTF-8
Codec ID : S_TEXT/UTF8
Codec ID/Info : UTF-8 Plain Text
Title : iTunes
Language : Russian
Default : No
Forced : No

Text #2
ID : 5
Format : UTF-8
Codec ID : S_TEXT/UTF8
Codec ID/Info : UTF-8 Plain Text
Title : iTunes
Language : English
Default : No
Forced : No

Menu
00:00:00.000 : en:1
00:02:35.000 : en:2
00:06:47.000 : en:3
00:11:01.000 : en:4
00:13:32.000 : en:5
00:15:25.000 : en:6
00:17:03.000 : en:7
00:19:35.000 : en:8
00:21:35.000 : en:9
00:24:58.000 : en:10
00:27:08.000 : en:11
00:30:33.000 : en:12
00:34:59.000 : en:13
00:37:52.000 : en:14
00:40:18.000 : en:15
00:41:06.000 : en:16
00:42:30.000 : en:17
00:46:03.000 : en:18
00:48:41.000 : en:19
00:50:28.000 : en:20
00:55:06.000 : en:21
00:57:06.000 : en:22
01:00:41.000 : en:23
01:04:32.000 : en:24
01:10:36.000 : en:25
01:12:28.000 : en:26
01:14:09.000 : en:27
01:18:26.000 : en:28
01:26:49.000 : en:29
pb.wtf



Скачать В поисках Дори через торрент http://i6.imageban.ru/out/2016/10/25/f861957eed894458073ad33e95f52809.jpg Скачать фильм В поисках Дори через торрент бесплантно в хорошем качестве Описание: Дори - синяя доброжелательная рыбка-хирург, страдающая провалами в памяти. Она упорно стремится избавиться от своего недуга и ... 9.9 10 53
Info! Золотая раздача, скачанное не засчитывается.
Торрент: Зарегистрирован [2016-10-25 08:05] · скачан: 1 793 раз
Статус: √ проверено
Размер: 3.99 GB
Как cкачать? Как скачать В поисках Дори через торрент | qTorrent

% Раздел Тема Автор DL S | L
Иностранные мультфильмы [ 1.45 GB ] В поисках Дори / Finding Dory [2016 мультфильм WEB-DLRip-AVC] - -Lexx- Скачать
3 | 0
Ultra HD (UHD: 2K, 4K, 8K) [ 8.84 GB ] В поисках Дори / Finding Dory [2016 Мультфильм UHD BDRip 2160p] DUB [] bober100 Скачать
1 | 0
Ultra HD (UHD: 2K, 4K, 8K) [ 41.17 GB ] В поисках Дори / Finding Dory [2016 Мультфильм UHD BDRemux 2160p] DUB [] +2xAVO bober100 Скачать
2 | 0
Иностранные мультфильмы [ 1.46 GB ] В поисках Дори / Finding Dory [2016 мультфильм BDRip] - [] Twi7ter Скачать
1 | 0
Иностранные мультфильмы [ 1.46 GB ] В поисках Дори / Finding Dory [2016 мультфильм HDRip] [ BD CEE] killermax2013 Скачать
2 | 0
Зарубежные Мультфильмы (BDRip 1080p, 720p, Blu-ray, BD-Remux) [ 5.78 GB ] В поисках Дори / Finding Dory [2016 мультфильм BDRip 1080p от еnvy / NNNB] DUB / Локализованный видеоряд еnvy Скачать
43 | 1
3D Мультфильмы [ 15.06 GB ] В поисках Дори в 3Д / Finding Dory 3D [2016 Мультфильм BDrip 1080p] DUB / OverUnder / Вертикальная стереопара serega768 Скачать
1 | 0

28-11-2019 20:33  

Отключить всю рекламу на сайте

25-10-2016 16:30 В поисках Дори Скачать торрент  

Спасибо, заценим ))))pb.wtf



27-11-2016 16:36 В поисках Дори Скачать торрент  

Интересно, Дори будет разговаривать с китом как в "Нэмо"? pb.wtf



    Дорогой пользователь! Огромная просьба, поблагодарите релизера, оцените раздачу и оставьте свои комментарий, если Вы скачали В поисках Дори через торрент бесплатно! Внесите свою лепту в развитие PiratBit!
    Комментировать посты могут только пользователи прошедшие не сложную регистрацию
    Показать сообщения:    

    В поисках Дори через торрент
    Скачать бесплатно В поисках Дори
    В поисках Дори скачать торрент
    В поисках Дори смотреть онлайн
    Cкачать фильм В поисках Дори бесплатно
    В поисках Дори скачать торрент в хорошем качестве
    В поисках Дори смотреть онлайн бесплатно в хорошем качестве


    Вы не можете начинать темы
    Вы не можете отвечать на сообщения
    Вы не можете редактировать свои сообщения
    Вы не можете удалять свои сообщения
    Вы не можете голосовать в опросах
    Вы не можете прикреплять файлы к сообщениям
    Вы можете скачивать файлы