2 сезон

iTunes

1 сезон

1

iTunes

iTunes

iTunes

1 сезон

RePack

30

ИГРА 18+

pack

ВАЖНО

!!Акция!!

Alien_RageХит недели

RePack

MK11
pack

Забери бонус

RePack

jed

!!Акция!!

Alien_Rage

RePack

fifa19

RePack

Assassins Creed: Odyssey

RePack

NEED FOR SPEED™ PAYBACK

4 сезон

9 сезон

Бесстыжие 9 сезон

Все сериалы

все сериалы на PB.wtf

RePack

FAR CRY 5
  

В поисках Дори / Finding Dory (Эндрю Стэнтон , Энгус МакЛэйн) [2016, мультфильм, комедия, приключения, WEB-DLRip] Дубляж - [Лицензия / iTunes] pb.wtf

В поисках Дори через торрент pb.wtf

Размер: 1.46 GB | Добавлен: 4 года назад | Торрент скачан:455 раз
Скачать  

25-10-2016 08:28 В поисках Дори Скачать торрент  

В поисках Дори / Finding Dory

Год выпуска: 2016
Страна: США
Жанр: мультфильм, комедия, приключения, семейный

Продолжительность: 01:37:02
Перевод: Дубляж - [Лицензия / iTunes]
Режиссер: Эндрю Стэнтон , Энгус МакЛэйн
В ролях:

Эллен ДеДженерес (Dory, озвучка), Альберт Брукс (Marlin, озвучка), Эд О’Нил (Hank, озвучка), Кэйтлин Олсон (Destiny, озвучка), Хайден Роуленс (Nemo, озвучка), Тай Бурелл (Bailey, озвучка), Дайан Китон (Jenny, озвучка), Юджин Леви (Charlie, озвучка), Слоун Мюррэй (Young Dory, озвучка), Идрис Эльба (Fluke, озвучка), Доминик Уэст (Rudder, озвучка), Боб Питерсон (Mr. Ray, озвучка)
Описание:
Дори - синяя доброжелательная рыбка-хирург, страдающая провалами в памяти. Она упорно стремится избавиться от своего недуга и найти свою семью.
Доп. информация: Локализованный русский видеоряд
Рейтинг:

MPAA: PG - Рекомендуется присутствие родителей
Качество: WEB-DLRip
Формат: AVI
Видео: XviD, 688x384 (16:9), 1676 kbps, 23,976 fps, 0,265 bpp
Аудио: AC3 / 5.1 / 48 kHz / 384 kbps /

General
Complete name : E:\Finding.Dory.2016.D.WEB-DLRip.avi
Format : AVI
Format/Info : Audio Video Interleave
File size : 1.46 GiB
Duration : 1 h 37 min
Overall bit rate : 2 154 kb/s
Writing application : VirtualDubMod 1.5.10.3 (build 2550/release)
Writing library : VirtualDubMod build 2550/release

Video
ID : 0
Format : MPEG-4 Visual
Format profile : Advanced Simple@L5
Format settings, BVOP : 2
Format settings, QPel : No
Format settings, GMC : No warppoints
Format settings, Matrix : Custom
Codec ID : XVID
Codec ID/Hint : XviD
Duration : 1 h 37 min
Bit rate : 1 676 kb/s
Width : 688 pixels
Height : 384 pixels
Display aspect ratio : 16:9
Frame rate : 23.976 (23976/1000) FPS
Color space : YUV
Chroma subsampling : 4:2:0
Bit depth : 8 bits
Scan type : Progressive
Compression mode : Lossy
Bits/(Pixel*Frame) : 0.265
Stream size : 1.14 GiB (78%)
Writing library : XviD 73

Audio
ID : 1
Format : AC-3
Format/Info : Audio Coding 3
Mode extension : CM (complete main)
Format settings, Endianness : Big
Codec ID : 2000
Duration : 1 h 37 min
Bit rate mode : Constant
Bit rate : 384 kb/s
Channel(s) : 6 channels
Channel positions : Front: L C R, Side: L R, LFE
Sampling rate : 48.0 kHz
Frame rate : 31.250 FPS (1536 spf)
Compression mode : Lossy
Stream size : 267 MiB (18%)
Alignment : Split accross interleaves
pb.wtf



Скачать В поисках Дори через торрент http://i6.imageban.ru/out/2016/10/25/d3f8aff4bf6cdbf0034e6c954fe21792.jpg Скачать фильм В поисках Дори через торрент бесплантно в хорошем качестве Описание: Дори - синяя доброжелательная рыбка-хирург, страдающая провалами в памяти. Она упорно стремится избавиться от своего недуга и ... 10 10 11
Info! Золотая раздача, скачанное не засчитывается.
Торрент: Зарегистрирован [2016-10-25 08:28] · скачан: 455 раз
Статус: √ проверено
Размер: 1.46 GB
Как cкачать? Как скачать В поисках Дори через торрент | qTorrent

% Раздел Тема Автор DL S | L
Иностранные мультфильмы [ 1.45 GB ] В поисках Дори / Finding Dory [2016 мультфильм WEB-DLRip-AVC] - -Lexx- Скачать
2 | 0
Ultra HD (UHD: 2K, 4K, 8K) [ 8.84 GB ] В поисках Дори / Finding Dory [2016 Мультфильм UHD BDRip 2160p] DUB [] bober100 Скачать
1 | 0
Ultra HD (UHD: 2K, 4K, 8K) [ 41.17 GB ] В поисках Дори / Finding Dory [2016 Мультфильм UHD BDRemux 2160p] DUB [] +2xAVO bober100 Скачать
2 | 0
Иностранные мультфильмы [ 1.46 GB ] В поисках Дори / Finding Dory [2016 мультфильм BDRip] - [] Twi7ter Скачать
4 | 0
Иностранные мультфильмы [ 1.46 GB ] В поисках Дори / Finding Dory [2016 мультфильм HDRip] [ BD CEE] killermax2013 Скачать
1 | 0
Зарубежные Мультфильмы (WEB-DL 720p, 1080p) [ 3.99 GB ] В поисках Дори / Finding Dory [2016 мультфильм WEB-DL 1080p] - -Lexx- Скачать
1 | 0
Зарубежные Мультфильмы (BDRip 1080p, 720p, Blu-ray, BD-Remux) [ 5.78 GB ] В поисках Дори / Finding Dory [2016 мультфильм BDRip 1080p от еnvy / NNNB] DUB / Локализованный видеоряд еnvy Скачать
40 | 1

28-11-2019 20:33  

Отключить всю рекламу на сайте

    Дорогой пользователь! Огромная просьба, поблагодарите релизера, оцените раздачу и оставьте свои комментарий, если Вы скачали В поисках Дори через торрент бесплатно! Внесите свою лепту в развитие PiratBit!
    Комментировать посты могут только пользователи прошедшие не сложную регистрацию
    Показать сообщения:    

    В поисках Дори через торрент
    Скачать бесплатно В поисках Дори
    В поисках Дори скачать торрент
    В поисках Дори смотреть онлайн
    Cкачать фильм В поисках Дори бесплатно
    В поисках Дори скачать торрент в хорошем качестве
    В поисках Дори смотреть онлайн бесплатно в хорошем качестве


    Вы не можете начинать темы
    Вы не можете отвечать на сообщения
    Вы не можете редактировать свои сообщения
    Вы не можете удалять свои сообщения
    Вы не можете голосовать в опросах
    Вы не можете прикреплять файлы к сообщениям
    Вы можете скачивать файлы