Всегда рабочее зеркало без VPN и Proxy просто перед .vidak.icu напиши любое слово или цифру, Пример http://0iw0.vidak.icu

MVO

2 сезон

2 сезон

1

1 сезон

iTunes

2 сезон

13

1 сезон

Deluxe

pack

Рекомендуем

Пиратка

30

ВАЖНО

RePack

MK11

RePack

jed

RePack

fifa19

RePack

RDR2

RePack

NEED FOR SPEED™ PAYBACK

Кинопоиск HD

6 сезон

 Острые козырьки 6 сезон

Все сериалы

все сериалы на PB.wtf

RePack

FAR CRY 5

Anonymous, нам критически не хватает 5601 руб. на оплату серверов и переферии за Апрель, помоги нам пожалуйста, вся надежда только на тебя. В благодарность мы отключим тебе всю рекламу на сайте!

×
  
Magnet ссылка

Коммандо из пригорода / Suburban Commando (Берт Кеннеди) [1991 г., фантастика, боевик, комедия, WEB-DLRip] MVO, AVO pb.wtf

Коммандо из пригорода через торрент pb.wtf

Размер: 1.45 GB | Добавлен: 5 лет 6 мес. назад | Торрент скачан:50 раз
Смотреть онлайн Коммандо из пригорода | Скачать    Ребята, помогите собрать деньги на оплату серверов!!!

25-10-2016 10:52 Коммандо из пригорода Скачать торрент  

Коммандо из пригорода / Suburban Commando
Год выпуска: 1991
Страна: США
Жанр: фантастика, боевик, комедия
Продолжительность: 01:30:36
Перевод: Профессиональный многоголосый, авторский

Режиссер: Берт Кеннеди

rating

В ролях: Халк Хоган, Кристофер Ллойд, Шелли Дювалл, Ларри Миллер, Уильям Болл, Джо Энн Диаринг, Джек Илэм, Рой Дотрис, Тони Лонго, Майкл Фаустино

Описание: Халк Хоган, играет роль интергалактического героя по имени Шеп. Миссия атлетичного Шепа — исправлять и перевоспитывать плохих. У героя есть специальный силовой костюм, который делает его практически неуязвимым. Когда космический корабль Шепа ломается, он совершает вынужденную посадку на планету Земля. Астронавт поселяется в пригороде, у семьи Уилкокс. Шеп отставляет силовой костюм дома, чтобы не привлекать внимания людей, и отправляется гулять по окрестностям, где он сразу обнаруживает несколько «плохишей». Это хамоватые разносчики газет, водители-лихачи и уличные грабители, которым Шеп преподаст суровый урок. Тем временем отец семейства обнаруживает силовой костюм астронавта и примеряет его…

Качество: WEB-DLRip
Формат: AVI
Видео кодек: XviD
Аудио кодек: AC3
Видео: XviD, 1691 Кбит/с, 704x384, 29.970 кадр/с
Аудио#1: AC3, 2 ch, 192 Кбит/с, 48 kHz | Профессиональный многоголосый (НТВ)
Аудио#2: AC3, 2 ch, 192 Кбит/с, 48 kHz | Профессиональный многоголосый (СТС)
Аудио#3: AC3, 2 ch, 192 Кбит/с, 48 kHz | Aвторский (Андрей Гаврилов)
Релиз от: Koenig
Общее
Полное имя : Suburban.Commando.1991.WEB-DLRip.avi
Формат : AVI
Формат/Информация : Audio Video Interleave
Размер файла : 1,45 Гбайт
Продолжительность : 1 ч. 30 м.
Общий поток : 2291 Кбит/сек
Программа кодирования : VirtualDubMod 1.5.10.2 (build 2540/release)
Библиотека кодирования : VirtualDubMod build 2540/release

Видео
Идентификатор : 0
Формат : MPEG-4 Visual
Профиль формата : Advanced Simple@L5
Параметр BVOP формата : 1
Параметр QPel формата : Нет
Параметр GMC формата : Без точки перехода
Параметр матрицы формата : Выборочная
Идентификатор кодека : XVID
Идентификатор кодека/Подсказка : XviD
Продолжительность : 1 ч. 30 м.
Битрейт : 1691 Кбит/сек
Ширина : 704 пикселя
Высота : 384 пикселя
Соотношение сторон : 1,85:1
Частота кадров : 29,970 (29970/1000) кадров/сек
Цветовое пространство : YUV
Субдискретизация насыщенности : 4:2:0
Битовая глубина : 8 бит
Тип развёртки : Прогрессивная
Метод сжатия : С потерями
Бит/(Пиксели*Кадры) : 0.209
Размер потока : 1,07 Гбайт (74%)
Библиотека кодирования : XviD 73

Аудио #1
Идентификатор : 1
Формат : AC-3
Формат/Информация : Audio Coding 3
Расширение режима : CM (complete main)
Параметр Endianness формата : Big
Идентификатор кодека : 2000
Продолжительность : 1 ч. 30 м.
Вид битрейта : Постоянный
Битрейт : 192 Кбит/сек
Каналы : 2 канала
Расположение каналов : Front: L R
Частота : 48,0 КГц
Частота кадров : 31,250 кадров/сек (1536 spf)
Метод сжатия : С потерями
Размер потока : 124 Мбайт (8%)
Выравнивание : Разделение по промежуткам
Продолжительность промежутка : 33 мс. (1,00 видеокадр)
Время предзагрузки промежутка : 500 мс.

Аудио #2
Идентификатор : 2
Формат : AC-3
Формат/Информация : Audio Coding 3
Расширение режима : CM (complete main)
Параметр Endianness формата : Big
Идентификатор кодека : 2000
Продолжительность : 1 ч. 30 м.
Вид битрейта : Постоянный
Битрейт : 192 Кбит/сек
Каналы : 2 канала
Расположение каналов : Front: L R
Частота : 48,0 КГц
Частота кадров : 31,250 кадров/сек (1536 spf)
Метод сжатия : С потерями
Размер потока : 124 Мбайт (8%)
Выравнивание : Разделение по промежуткам
Продолжительность промежутка : 33 мс. (1,00 видеокадр)
Время предзагрузки промежутка : 500 мс.

Аудио #3
Идентификатор : 3
Формат : AC-3
Формат/Информация : Audio Coding 3
Расширение режима : CM (complete main)
Параметр Endianness формата : Big
Идентификатор кодека : 2000
Продолжительность : 1 ч. 30 м.
Вид битрейта : Постоянный
Битрейт : 192 Кбит/сек
Каналы : 2 канала
Расположение каналов : Front: L R
Частота : 48,0 КГц
Частота кадров : 31,250 кадров/сек (1536 spf)
Метод сжатия : С потерями
Размер потока : 124 Мбайт (8%)
Выравнивание : Разделение по промежуткам
Продолжительность промежутка : 33 мс. (1,00 видеокадр)
Время предзагрузки промежутка : 500 мс.

pb.wtf



Скачать Коммандо из пригорода через торрент http://i84.fastpic.ru/big/2016/1025/43/963429a1692ee7156346555338a42343.jpg Скачать, смотреть онлайн Коммандо из пригорода бесплантно в хорошем качестве Описание: Халк Хоган, играет роль интергалактического героя по имени Шеп. Миссия атлетичного Шепа — исправлять и перевоспитывать плохих. У ... 10 10 3
Info! Золотая раздача, скачанное не засчитывается.
Торрент: Зарегистрирован [2016-10-25 10:52] · скачан: 50 раз
Статус: √ проверено
Размер: 1.45 GB
Как cкачать? Как скачать Коммандо из пригорода через торрент | UTorrent

% Раздел Тема Автор DL S | L
Фильмы (WEB-DL 720p, 1080p) [ 9.07 GB ] Коммандо из пригорода / Suburban Commando [1991 WEB-DL 1080p] AVO+2xMVO+2xDVO bober100 Скачать
1 | 0

28-11-2019 20:33  

Отключить всю рекламу на сайте

    Дорогой пользователь! Огромная просьба, поблагодарите релизера, оцените раздачу и оставьте свои комментарий, если Вы скачали Коммандо из пригорода через торрент бесплатно!
    Комментировать посты могут только пользователи прошедшие не сложную регистрацию
    Показать сообщения:    

    Коммандо из пригорода через торрент
    Скачать бесплатно Коммандо из пригорода
    Коммандо из пригорода скачать торрент
    Коммандо из пригорода смотреть онлайн
    Cкачать фильм Коммандо из пригорода бесплатно
    Коммандо из пригорода скачать торрент в хорошем качестве
    Коммандо из пригорода смотреть онлайн бесплатно в хорошем качестве


    Вы не можете начинать темы
    Вы не можете отвечать на сообщения
    Вы не можете редактировать свои сообщения
    Вы не можете удалять свои сообщения
    Вы не можете голосовать в опросах
    Вы не можете прикреплять файлы к сообщениям
    Вы можете скачивать файлы