новый адрес
Ссылка на приватное зеркало всего за 1$. Внимание количество ограничено!!!

iTunes

1+1

iTunes

мы

iTunes

1

iTunes

Чернобыль

iTunes

Ральф против интернета

Лицензия

ПШазам

Лицензия

Оно 2

Лицензия

30
pack

Вам бонус

ВАЖНО

!!Акция!!

Alien_RageХит недели

RePack

Resident Evil 21

ИГРА 18+

pack

RePack

jed

!!Акция!!

Alien_Rage

RePack

fifa19

RePack

Assassins Creed: Odyssey

RePack

NEED FOR SPEED™ PAYBACK

3 сезон

9 сезон

Бесстыжие 9 сезон

Все сериалы

все сериалы на PB.wtf

RePack

FAR CRY 5
Ребята, катастрофически не хватает 1900р. для оплаты серверов за Октябрь (всвязи с блокировками трафик упал в 3 раза), 1-2р., выручайте.
  

Цыганское счастье (Сергей Никоненко ) [1981, драма, DVDRip-AVC] pb.wtf

Цыганское счастье через торрент pb.wtf

Размер: 1.6 GB | Добавлен: 3 года назад | Торрент скачан:14 раз
Скачать  

25-10-2016 11:49 Цыганское счастье Скачать торрент  

Цыганское счастье

Год выпуска: 1981
Страна: СССР
Жанр: драма

Продолжительность: 01:15:50
Перевод: Не требуется [Русский]
Режиссер: Сергей Никоненко
В ролях: Николай Крючков, Иван Каменский, Марина Яковлева (Варька), Екатерина Воронина (Ленка), Георгий Светлани, Сергей Никоненко, Екатерина Жемчужная, Лидия Федосеева-Шукшина, Андрей Смоляков, Лев Борисов, Сергей Столяров, Екатерина Гриценко
Описание:
Непростая судьба цыган, не раз воспетая поэтами, не лишена тягот и невзгод. Не обошел злой рок и цыганку Марию, которая оказалась на обочине жизни с единственным сыном. Решив оставить непредсказуемую кочевую стезю ради будущего своего Сашки, она поселяется в деревне, где молодой цыганенок находит верных друзей и свою первую любовь.
Кажется, что Мария и Сашка, наконец-то, обрели свой дом, но цыганское сердце не знает покоя, и в погоне за счастьем им еще предстоит сделать свой нелегкий выбор…

Качество: DVDRip-AVC
Формат: MKV
Видео: AVC, 702x492@998x492 (2.028), 2800 kbps, 25 fps, 0,324 bpp
Аудио: AC3 / 2.0 / 48 kHz / 224 kbps /

General
Unique ID Cyganskoe schastje 1981 DVDRip (AVC).mkv
Format : Matroska
Format version : Version 2
File size : 1.60 GiB
Duration : 1 h 15 min
Overall bit rate : 3 026 kb/s
Encoded date : UTC 2016-10-22 04:08:38
Writing application : mkvmerge v7.8.0 ('River Man') 32bit built on Apr 3 2015 12:11:22
Writing library : libebml v1.3.1 + libmatroska v1.4.2

Video
ID : 1
Format : AVC
Format/Info : Advanced Video Codec
Format profile : High@L4.1
Format settings, CABAC : Yes
Format settings, ReFrames : 14 frames
Codec ID : V_MPEG4/ISO/AVC
Duration : 1 h 15 min
Bit rate : 2 800 kb/s
Width : 702 pixels
Height : 492 pixels
Display aspect ratio : 2.028
Original display aspect ratio : 2.029
Frame rate mode : Constant
Frame rate : 25.000 FPS
Color space : YUV
Chroma subsampling : 4:2:0
Bit depth : 8 bits
Scan type : Progressive
Bits/(Pixel*Frame) : 0.324
Stream size : 1.45 GiB (91%)
Writing library : x264 core 148 r2638 7599210
Encoding settings : cabac=1 / ref=14 / deblock=1:-2:-2 / analyse=0x3:0x133 / me=umh / subme=10 / psy=1 / psy_rd=1.05:0.15 / mixed_ref=1 / me_range=32 / chroma_me=1 / trellis=2 / 8x8dct=1 / cqm=0 / deadzone=21,11 / fast_pskip=0 / chroma_qp_offset=-3 / threads=4 / lookahead_threads=1 / sliced_threads=0 / nr=0 / decimate=0 / interlaced=0 / bluray_compat=0 / constrained_intra=0 / bframes=16 / b_pyramid=2 / b_adapt=2 / b_bias=0 / direct=3 / weightb=1 / open_gop=0 / weightp=2 / keyint=250 / keyint_min=25 / scenecut=40 / intra_refresh=0 / rc=2pass / mbtree=0 / bitrate=2800 / ratetol=1.0 / qcomp=0.60 / qpmin=0 / qpmax=69 / qpstep=4 / cplxblur=20.0 / qblur=0.5 / ip_ratio=1.40 / pb_ratio=1.30 / aq=1:1.00
Language : English
Default : Yes
Forced : No
Color range : Limited
Color primaries : BT.601 NTSC
Transfer characteristics : BT.601
Matrix coefficients : BT.601

Audio
ID : 2
Format : AC-3
Format/Info : Audio Coding 3
Mode extension : CM (complete main)
Format settings, Endianness : Big
Codec ID : A_AC3
Duration : 1 h 15 min
Bit rate mode : Constant
Bit rate : 224 kb/s
Channel(s) : 2 channels
Channel positions : Front: L R
Sampling rate : 48.0 kHz
Frame rate : 31.250 FPS (1536 spf)
Compression mode : Lossy
Stream size : 121 MiB (7%)
Default : Yes
Forced : No
pb.wtf



Скачать Цыганское счастье через торрент http://i6.imageban.ru/out/2016/10/25/c0345a78d0c35cdd41c00a1a3d0e4916.jpg Скачать фильм Цыганское счастье через торрент бесплантно в хорошем качестве Описание: Непростая судьба цыган, не раз воспетая поэтами, не лишена тягот и невзгод. Не обошел злой рок и цыганку Марию, которая оказалась ... 10 10 3
Info! Золотая раздача, скачанное не засчитывается.
Торрент: Зарегистрирован [2016-10-25 11:49] · скачан: 14 раз
Статус: √ проверено
Размер: 1.6 GB
Как cкачать? Как скачать Цыганское счастье через торрент | qTorrent

% Раздел Тема Автор DL S | L
Наши сериалы [ 4.29 GB ] Цыганское счастье / Сезон 1 / Серии 1 - 8 из 8 [2016 Мело HDTVRip] oleg8 Скачать
1 | 0
    Дорогой пользователь! Огромная просьба, поблагодарите релизера, оцените раздачу и оставьте свои комментарий, если Вы скачали Цыганское счастье через торрент бесплатно! Внесите свою лепту в развитие PiratBit!
    Комментировать посты могут только пользователи прошедшие не сложную регистрацию
    Показать сообщения:    

    Цыганское счастье через торрент
    Скачать бесплатно Цыганское счастье
    Цыганское счастье скачать торрент
    Цыганское счастье смотреть онлайн
    Cкачать фильм Цыганское счастье бесплатно
    Цыганское счастье скачать торрент в хорошем качестве
    Цыганское счастье смотреть онлайн бесплатно в хорошем качестве


    Вы не можете начинать темы
    Вы не можете отвечать на сообщения
    Вы не можете редактировать свои сообщения
    Вы не можете удалять свои сообщения
    Вы не можете голосовать в опросах
    Вы не можете прикреплять файлы к сообщениям
    Вы можете скачивать файлы