1 сезон

3 сезон

iTunes

1

iTunes

MVO

iTunes

13

1 сезон

RePack

30

Deluxe

pack

Лицензия

ВАЖНО

ИГРА 18+

pack

RePack

MK11

RePack

jed

RePack

fifa19

RePack

RDR2

RePack

NEED FOR SPEED™ PAYBACK

4 сезон

9 сезон

Бесстыжие 9 сезон

Все сериалы

все сериалы на PB.wtf

RePack

FAR CRY 5

Anonymous, добрый вечер, мы катастрофически не успеваем собрать деньги на оплату серверов, помогите нам пожалуйста 5,10,15р., для нас важна любая помощь . В качестве благодарности мы отключим Вам всю рекламу на сайте (укажите свой ник в строку Ваше имя)!

×
  
Magnet ссылка

Хулиган / Hellion (Кэт Кэндлер / Kat Candler) [2014, драма, DVD9] R5 pb.wtf

Хулиган через торрент pb.wtf

Размер: 6.09 GB | Добавлен: 5 лет 8 мес. назад | Торрент скачан:13 раз
Скачать  

26-10-2015 10:03 Хулиган Скачать торрент  


Хулиган / Hellion
«Его ничто не остановит»
Страна: США
Студия: Across Town Productions, Arts+Labor, CineLab SoundMix, IFC Films, Silver Sail Entertainment, Ten Acre Films
Жанр: драма
Год выпуска: 2014
Мировая премьера: 17 января 2014
Российская премьера: 2 июля 2015
Дата выхода DVD: 21 сентября 2015
Дата выхода Blu-Ray: 21 сентября 2015
Продолжительность: 01:35:01
Перевод: Профессиональный (дублированный) [Лицензия]
Cубтитры: украинские
Оригинальная аудиодорожка: нет
Режиссер: Кэт Кэндлер / Kat Candler
В ролях: Аарон Пол, Джульетт Льюис, Джош Уиггинс, Deke Garner, Dalton Sutton, Camron Owens, Dylan Cole, Джонни Марс, Уолт Робертс, Аннали Джеффрис
Описание: Отца двух мальчиков Холлиса лишают родительских прав, забрав младшего сына.
Это становится точкой невозврата для старшего сына Джейкоба, увлекающегося гонками. Восставший против отца, страстно одержимый только двумя вещами: выиграть чемпионат по мотокроссу и вернуть младшего брата домой, Джейкоб не остановится ни перед чем… Совершая одно преступление за другим, отчаянный 13-летний трудный подросток, мастерски уходит от погони.
Отцу в одиночку предстоит сразиться с системой, вернуть обоих сыновей и повернуть жизнь в прежнее русло.

Бонусы: Анонсы

Релиз группы:
Качество: DVD9 R5
Формат: DVD-Video
Видео кодек: MPEG2
Аудио кодек: AC3
Видео: PAL 16:9 (720x576(0.695)) MPEG Video, 25,000 кадр/сек, 7201 Кбит/сек
Аудио: Russian (Dolby AC3, 6 ch) 448 Кбит/сек, 48,0 КГц



Title: F
Size: 6.09 Gb ( 6 385 948 KBytes ) - DVD-9
Enabled regions: 1, 2, 3, 4, 5, 6, 7, 8

VTS_01 :
Play Length: 01:35:01
Video: PAL 16:9 (720x576) VBR, Auto Pan&Scan
Audio:
Not specified (Dolby AC3, 6 ch)
Subtitles:
English

VTS_02 :
Play Length: 00:00:15
Video: PAL 4:3 (720x576) VBR
Audio:
English (Dolby AC3, 2 ch)

VTS_03 :
Play Length: 00:00:07
Video: PAL 16:9 (720x576) VBR, Auto Pan&Scan
Audio:
English (Dolby AC3, 2 ch)

VTS_04 :
Play Length: 00:02:05
Video: PAL 16:9 (720x576) VBR, Auto Pan&Scan
Audio:
English (Dolby AC3, 2 ch)

VTS_05 :
Play Length: 00:02:28
Video: PAL 16:9 (720x576) VBR, Auto Pan&Scan
Audio:
English (Dolby AC3, 2 ch)

VTS_06 :
Play Length: 00:01:50
Video: PAL 16:9 (720x576) VBR, Auto Pan&Scan
Audio:
English (Dolby AC3, 2 ch)

VTS_07 :
Play Length: 00:02:22
Video: PAL 16:9 (720x576) VBR, Auto Pan&Scan
Audio:
English (Dolby AC3, 2 ch)

VTS_08 :
Play Length: 00:01:29
Video: PAL 16:9 (720x576) VBR, Auto Pan&Scan
Audio:
English (Dolby AC3, 2 ch)

VTS_09 :
Play Length: 00:01:39
Video: PAL 16:9 (720x576) VBR, Auto Pan&Scan
Audio:
English (Dolby AC3, 2 ch)

VTS_10 :
Play Length: 00:02:22
Video: PAL 16:9 (720x576) VBR, Auto Pan&Scan
Audio:
English (Dolby AC3, 2 ch)

VTS_11 :
Play Length: 00:02:18
Video: PAL 16:9 (720x576) VBR, Auto Pan&Scan
Audio:
English (Dolby AC3, 2 ch)

VTS_12 :
Play Length: 00:01:26
Video: PAL 16:9 (720x576) VBR, Auto Pan&Scan
Audio:
English (Dolby AC3, 2 ch)

VTS_13 :
Play Length: 00:03:10
Video: PAL 16:9 (720x576) VBR, Auto Pan&Scan
Audio:
English (Dolby AC3, 2 ch)

Menu Video:
PAL 4:3 (720x576) VBR
Menu Subtitles:
Not specified
Menu English La
Общее
Полное имя : F:\Новинки 2015\Huligan.2014.DVD9\VIDEO_TS\VTS_01_3.VOB
Формат : MPEG-PS
Размер файла : 1024 Мбайт
Продолжительность : 18 м.
Режим общего битрейта : Переменный
Общий поток : 7804 Кбит/сек

Видео
Идентификатор : 224 (0xE0)
Формат : MPEG Video
Версия формата : Version 2
Профиль формата : Main@Main
Параметр BVOP формата : Да
Параметр матрицы формата : По умолчанию
Параметр GOP формата : M=3, N=12
Продолжительность : 18 м.
Вид битрейта : Переменный
Битрейт : 7201 Кбит/сек
Максимальный битрейт : 8500 Кбит/сек
Ширина : 720 пикселей
Высота : 576 пикселей
Соотношение сторон : 16:9
Частота кадров : 25,000 кадров/сек
Стандарт вещания : PAL
Цветовое пространство : YUV
Субдискретизация насыщенности : 4:2:0
Битовая глубина : 8 бит
Тип развёртки : Прогрессивная
Метод сжатия : С потерями
Бит/(Пиксели*Кадры) : 0.695
Временной код первого кадра : 00:37:13:14
Оригинал временного кода : Group of pictures header
Размер потока : 945 Мбайт (92%)

Аудио
Идентификатор : 189 (0xBD)-128 (0x80)
Формат : AC-3
Формат/Информация : Audio Coding 3
Расширение режима : CM (complete main)
Параметр Endianness формата : Big
Режим смешивания : DVD-Video
Продолжительность : 18 м.
Вид битрейта : Постоянный
Битрейт : 448 Кбит/сек
Каналы : 6 каналов
Расположение каналов : Front: L C R, Side: L R, LFE
Частота : 48,0 КГц
Метод сжатия : С потерями
Задержка видео : -360 мс.
Размер потока : 58,8 Мбайт (6%)

Текст #1
Идентификатор : 189 (0xBD)-33 (0x21)
Формат : RLE
Формат/Информация : Run-length encoding
Режим смешивания : DVD-Video
Задержка видео : 4 с. 420 мс.

Текст #2
Идентификатор : 189 (0xBD)-34 (0x22)
Формат : RLE
Формат/Информация : Run-length encoding
Режим смешивания : DVD-Video
Задержка видео : 4 с. 420 мс.










pb.wtf



Скачать Хулиган через торрент http://i73.fastpic.ru/big/2015/1025/f1/f12ca26811b072ddb1c2a95fc7ab77f1.png Скачать фильм Хулиган через торрент бесплантно в хорошем качестве Описание: Отца двух мальчиков Холлиса лишают родительских прав, забрав младшего сына.Это становится точкой невозврата для старшего сына ... 10 10 1
Info! Золотая раздача, скачанное не засчитывается.
Торрент: Зарегистрирован [2015-10-26 10:03] · скачан: 13 раз
Статус: √ проверено
Размер: 6.09 GB
Как cкачать? Как скачать Хулиган через торрент | UTorrent

28-11-2019 20:33  

Отключить всю рекламу на сайте

    Дорогой пользователь! Огромная просьба, поблагодарите релизера, оцените раздачу и оставьте свои комментарий, если Вы скачали Хулиган через торрент бесплатно! Внесите свою лепту в развитие PiratBit!
    Комментировать посты могут только пользователи прошедшие не сложную регистрацию
    Показать сообщения:    

    Хулиган через торрент
    Скачать бесплатно Хулиган
    Хулиган скачать торрент
    Хулиган смотреть онлайн
    Cкачать фильм Хулиган бесплатно
    Хулиган скачать торрент в хорошем качестве
    Хулиган смотреть онлайн бесплатно в хорошем качестве


    Вы не можете начинать темы
    Вы не можете отвечать на сообщения
    Вы не можете редактировать свои сообщения
    Вы не можете удалять свои сообщения
    Вы не можете голосовать в опросах
    Вы не можете прикреплять файлы к сообщениям
    Вы можете скачивать файлы