Ссылка на приватное зеркало всего за 1$. Внимание количество ограничено!!!

iTunes

iTunes

iTunes

1

iTunes

iTunes

iTunes

iTunes

iTunes

30
pack

$ от Little Big

ВАЖНО

!!Акция!!

Alien_RageХит недели

RePack

Resident Evil 21

ИГРА 18+

pack

RePack

jed

!!Акция!!

Alien_Rage

RePack

fifa19

RePack

Assassins Creed: Odyssey

RePack

NEED FOR SPEED™ PAYBACK

4 сезон

9 сезон

Бесстыжие 9 сезон

Все сериалы

все сериалы на PB.wtf

RePack

FAR CRY 5
  

Арка / ARQ (Тони Эллиотт) [2016, фантастика, триллер, WEBRip 720p] Профессиональный многоголосый [NewStudio] pb.wtf

Арка через торрент pb.wtf

Раздают: 1 [ 0 KB/s ]
Размер: 1.85 GB | Добавлен: 3 года 8 мес. назад | Торрент скачан:928 раз
Скачать  

25-10-2016 14:19 Арка Скачать торрент  

Арка / ARQ

Год выпуска: 2016
Страна: США
Жанр: фантастика, триллер

Продолжительность: 01:27:45
Перевод: Профессиональный многоголосый [NewStudio]
Примечание: Релиз без рекламы
Субтитры: русские (форс.), английские, английские (SDH)
Режиссер: Тони Эллиотт
В ролях:

Робби Амелл (Renton), Рэйчел Тейлор (Hannah), Шон Бенсон (Sonny), Грэй Пауэлл (Father), Джейкоб Нийем (Brother), Адам Батчер (Cuz), Танту Кардинал (The Pope), Джейми Спильчук (Mobius Common, озвучка, в титрах не указан)
Описание:
Будущее Земли зависит от новой технологии, но на пути к выживании планеты - неожиданный поворот. Запертые в лаборатории и застрявшие во временной петле, дезориентированные герои пытаются скрыться от захватчиков в масках, одновременно сохранив новый источник энергии, который может спасти человечество.
Рейтинг:

Качество: WEBRip 720p
Формат: MKV
Видео: AVC, 1280x534 (2.40:1), 2197 kbps, 23,976 fps, 0,134 bpp
Аудио №1: русский / AC3 / 5.1 / 48 kHz / 384 kbps / |NewStudio|
Аудио №2: английский / AC3 / 5.1 / 48 kHz / 384 kbps /

General
Unique ID : 180806150248404244270951020417447925670 (0x8805FF75ABF5C798B338881AFC1897A6)
Complete name : E:\ARQ.2016.WEB.72Оp.NS.mkv
Format : Matroska
Format version : Version 2
File size : 1.85 GiB
Duration : 1 h 27 min
Overall bit rate : 3 026 kb/s
Encoded date : UTC 2016-09-29 15:23:24
Writing application : mkvmerge v7.8.0 ('River Man') 32bit built on Apr 3 2015 12:11:22
Writing library : libebml v1.3.1 + libmatroska v1.4.2

Video
ID : 1
Format : AVC
Format/Info : Advanced Video Codec
Format profile : High@L4.1
Format settings, CABAC : Yes
Format settings, ReFrames : 9 frames
Codec ID : V_MPEG4/ISO/AVC
Duration : 1 h 27 min
Bit rate : 2 197 kb/s
Width : 1 280 pixels
Height : 534 pixels
Display aspect ratio : 2.40:1
Frame rate mode : Constant
Frame rate : 23.976 (24000/1001) FPS
Color space : YUV
Chroma subsampling : 4:2:0
Bit depth : 8 bits
Scan type : Progressive
Bits/(Pixel*Frame) : 0.134
Stream size : 1.35 GiB (73%)
Writing library : x264 core 148 r2705+3 3f5ed56 / tmod 418b0d4 X86_64
Encoding settings : cabac=1 / ref=9 / deblock=1:-3:-3 / analyse=0x3:0x113 / me=umh / subme=10 / psy=1 / fade_compensate=0.00 / psy_rd=1.15:0.15 / mixed_ref=1 / me_range=36 / chroma_me=1 / trellis=2 / 8x8dct=1 / cqm=0 / deadzone=21,11 / fast_pskip=0 / chroma_qp_offset=-3 / threads=12 / lookahead_threads=2 / sliced_threads=0 / nr=0 / decimate=0 / interlaced=0 / bluray_compat=0 / constrained_intra=0 / fgo=0 / bframes=9 / b_pyramid=2 / b_adapt=2 / b_bias=0 / direct=3 / weightb=1 / open_gop=0 / weightp=2 / keyint=250 / keyint_min=23 / scenecut=40 / intra_refresh=0 / rc=crf / mbtree=0 / crf=18.0000 / qcomp=0.75 / qpmin=0:0:0 / qpmax=69:69:69 / qpstep=4 / ip_ratio=1.40 / pb_ratio=1.30 / aq=3:0.80 / aq-sensitivity=10.00 / aq-factor=1.00:1.00:1.00 / aq2=0 / aq3=0
Language : English
Default : Yes
Forced : No

Audio #1
ID : 2
Format : AC-3
Format/Info : Audio Coding 3
Mode extension : CM (complete main)
Format settings, Endianness : Big
Codec ID : A_AC3
Duration : 1 h 27 min
Bit rate mode : Constant
Bit rate : 384 kb/s
Channel(s) : 6 channels
Channel positions : Front: L C R, Side: L R, LFE
Sampling rate : 48.0 kHz
Frame rate : 31.250 FPS (1536 spf)
Compression mode : Lossy
Stream size : 241 MiB (13%)
Language : Russian
Default : Yes
Forced : No

Audio #2
ID : 3
Format : AC-3
Format/Info : Audio Coding 3
Mode extension : CM (complete main)
Format settings, Endianness : Big
Codec ID : A_AC3
Duration : 1 h 27 min
Bit rate mode : Constant
Bit rate : 384 kb/s
Channel(s) : 6 channels
Channel positions : Front: L C R, Side: L R, LFE
Sampling rate : 48.0 kHz
Frame rate : 31.250 FPS (1536 spf)
Compression mode : Lossy
Stream size : 241 MiB (13%)
Language : English
Default : No
Forced : No

Text #1
ID : 4
Format : ASS
Codec ID : S_TEXT/ASS
Codec ID/Info : Advanced Sub Station Alpha
Compression mode : Lossless
Language : Russian
Default : Yes
Forced : No

Text #2
ID : 5
Format : UTF-8
Codec ID : S_TEXT/UTF8
Codec ID/Info : UTF-8 Plain Text
Language : English
Default : No
Forced : No

Text #3
ID : 6
Format : UTF-8
Codec ID : S_TEXT/UTF8
Codec ID/Info : UTF-8 Plain Text
Title : (SDH)
Language : English
Default : No
Forced : No
pb.wtf



Скачать Арка через торрент http://i4.imageban.ru/out/2016/10/25/18f83dce5377560a3cfaacbe94ed5706.jpg Скачать фильм Арка через торрент бесплантно в хорошем качестве Описание: Будущее Земли зависит от новой технологии, но на пути к выживании планеты - неожиданный поворот. Запертые в лаборатории и ... 9.5 10 20
Info! Золотая раздача, скачанное не засчитывается.
Торрент: Зарегистрирован [2016-10-25 14:19] · скачан: 928 раз
Статус: √ проверено
Размер: 1.85 GB
Как cкачать? Как скачать Арка через торрент | qTorrent

% Раздел Тема Автор DL S | L
Фильмы без перевода [ 24.1 GB ] Страсти Жанны д`Арк / La passion de Jeanne d'Arc [1928 биография история BD Remux 1080р] Sub bober100 Скачать
1 | 0
Фильмы (WEB-DL 720p, 1080p) [ 4.22 GB ] Арка / ARQ [2016 WEBRip 1080p] многоголосый [NewStudio] -Lexx- Скачать
1 | 0
T Фильмы 2016 [DVDrip, WEB-DLRip, HDrip] (DUB, MVO) [ 1.36 GB ] Арка / ARQ [2016 WEBRip] MVO [NewStudio] Airsoft93rus Скачать
1 | 0
Фильмы до 2000 г. [ 2.73 GB ] Жанна д'Арк / Joan of Arc [1999 исторический DVDRip] [MVO] killermax2013 Скачать
1 | 0
RTS (стратегии в реальном времени) [ 749 MB ] Wars and Warriors: Joan of Arc Жанна д'Арк[лицензияRUАккела] Shmel Скачать
1 | 0
Фильмы до 2000 г. [ 2.91 GB ] Жанна Д'Арк / Joan of Arc [1999 военный биография история BDRip] POCIK Скачать
1 | 0
Аниме [HD 720p, 1080p] [ 367 MB ] Железный Человек / Iron Man[05 из 12] [2010 BDRip ] DragonHard Скачать
1 | 0

28-11-2019 20:33  

Отключить всю рекламу на сайте

    Дорогой пользователь! Огромная просьба, поблагодарите релизера, оцените раздачу и оставьте свои комментарий, если Вы скачали Арка через торрент бесплатно! Внесите свою лепту в развитие PiratBit!
    Комментировать посты могут только пользователи прошедшие не сложную регистрацию
    Показать сообщения:    

    Арка через торрент
    Скачать бесплатно Арка
    Арка скачать торрент
    Арка смотреть онлайн
    Cкачать фильм Арка бесплатно
    Арка скачать торрент в хорошем качестве
    Арка смотреть онлайн бесплатно в хорошем качестве


    Вы не можете начинать темы
    Вы не можете отвечать на сообщения
    Вы не можете редактировать свои сообщения
    Вы не можете удалять свои сообщения
    Вы не можете голосовать в опросах
    Вы не можете прикреплять файлы к сообщениям
    Вы можете скачивать файлы