Ссылка на приватное зеркало нашего сайта всего за 1$. Внимание количество ограничено!!!

2 сезон

iTunes

1 сезон

1

iTunes

iTunes

iTunes

1 сезон

RePack

30

ИГРА 18+

pack

ВАЖНО

!!Акция!!

Alien_RageХит недели

RePack

MK11
pack

Забери бонус

RePack

jed

!!Акция!!

Alien_Rage

RePack

fifa19

RePack

Assassins Creed: Odyssey

RePack

NEED FOR SPEED™ PAYBACK

4 сезон

9 сезон

Бесстыжие 9 сезон

Все сериалы

все сериалы на PB.wtf

RePack

FAR CRY 5
  

В поисках Дори / Finding Dory (Эндрю Стэнтон , Энгус МакЛэйн) [2016, мультфильм, комедия, приключения, WEB-DLRip-AVC] Дубляж - [Лицензия / iTunes] pb.wtf

В поисках Дори через торрент pb.wtf

Размер: 1.45 GB | Добавлен: 4 года назад | Торрент скачан:1015 раз
Скачать  

25-10-2016 14:34 В поисках Дори Скачать торрент  

В поисках Дори / Finding Dory

Год выпуска: 2016
Страна: США
Жанр: мультфильм, комедия, приключения, семейный

Продолжительность: 01:37:02
Перевод: Дубляж - [Лицензия / iTunes]
Субтитры: русские (Full), английские (Full)
Режиссер: Эндрю Стэнтон , Энгус МакЛэйн
В ролях:

Эллен ДеДженерес (Dory, озвучка), Альберт Брукс (Marlin, озвучка), Эд О’Нил (Hank, озвучка), Кэйтлин Олсон (Destiny, озвучка), Хайден Роуленс (Nemo, озвучка), Тай Бурелл (Bailey, озвучка), Дайан Китон (Jenny, озвучка), Юджин Леви (Charlie, озвучка), Слоун Мюррэй (Young Dory, озвучка), Идрис Эльба (Fluke, озвучка), Доминик Уэст (Rudder, озвучка), Боб Питерсон (Mr. Ray, озвучка)
Описание:
Дори - синяя доброжелательная рыбка-хирург, страдающая провалами в памяти. Она упорно стремится избавиться от своего недуга и найти свою семью.
Доп. информация: Локализованный русский видеоряд
Рейтинг:

MPAA: PG - Рекомендуется присутствие родителей
Качество: WEB-DLRip-AVC
Формат: MKV
Видео: AVC, 896x504 (16:9), 1590 kbps, 23,976 fps, 0,147 bpp
Аудио №1: русский / AC3 / 5.1 / 48 kHz / 384 kbps / |iTunes|
Аудио №2: английский / AAC LC / 2.0 / 48 kHz / 155 kbps /
Навигация по главам: есть
Автор рипа: Dalemake

General
Unique ID : 203670577297093728140191476101654048010 (0x993986BF9356C2FC96A7334384C0ED0A)
Complete name : E:\Torrent\film\V_poiskah_Dory_2016_WEB-DLRip-AVC_by_Dalemake.mkv
Format : Matroska
Format version : Version 4 / Version 2
File size : 1.45 GiB
Duration : 1 h 37 min
Overall bit rate : 2 133 kb/s
Movie name : [Finding Dory_2016_by Dalemake]
Encoded date : UTC 2016-10-25 09:02:47
Writing application : mkvmerge v7.8.0 ('River Man') 32bit built on Apr 3 2015 12:11:22
Writing library : libebml v1.3.1 + libmatroska v1.4.2

Video
ID : 1
Format : AVC
Format/Info : Advanced Video Codec
Format profile : High@L4.1
Format settings, CABAC : Yes
Format settings, ReFrames : 11 frames
Codec ID : V_MPEG4/ISO/AVC
Duration : 1 h 37 min
Bit rate : 1 590 kb/s
Width : 896 pixels
Height : 504 pixels
Display aspect ratio : 16:9
Frame rate mode : Constant
Frame rate : 23.976 (24000/1001) FPS
Color space : YUV
Chroma subsampling : 4:2:0
Bit depth : 8 bits
Scan type : Progressive
Bits/(Pixel*Frame) : 0.147
Stream size : 1.08 GiB (75%)
Title : [Finding Dory_2016_by Dalemake]
Writing library : x264 core 146 r2538 121396c
Encoding settings : cabac=1 / ref=11 / deblock=1:-2:-2 / analyse=0x3:0x113 / me=umh / subme=11 / psy=1 / psy_rd=1.00:0.00 / mixed_ref=1 / me_range=48 / chroma_me=1 / trellis=2 / 8x8dct=1 / cqm=0 / deadzone=21,11 / fast_pskip=0 / chroma_qp_offset=-2 / threads=6 / lookahead_threads=1 / sliced_threads=0 / nr=0 / decimate=0 / interlaced=0 / bluray_compat=0 / constrained_intra=0 / bframes=10 / b_pyramid=2 / b_adapt=2 / b_bias=0 / direct=3 / weightb=1 / open_gop=0 / weightp=2 / keyint=240 / keyint_min=23 / scenecut=40 / intra_refresh=0 / rc_lookahead=60 / rc=2pass / mbtree=0 / bitrate=1590 / ratetol=1.0 / qcomp=0.60 / qpmin=0 / qpmax=69 / qpstep=4 / cplxblur=20.0 / qblur=0.5 / vbv_maxrate=50000 / vbv_bufsize=62500 / nal_hrd=none / filler=0 / ip_ratio=1.30 / pb_ratio=1.25 / aq=1:1.00
Default : Yes
Forced : Yes

Audio #1
ID : 2
Format : AC-3
Format/Info : Audio Coding 3
Mode extension : CM (complete main)
Format settings, Endianness : Big
Codec ID : A_AC3
Duration : 1 h 37 min
Bit rate mode : Constant
Bit rate : 384 kb/s
Channel(s) : 6 channels
Channel positions : Front: L C R, Side: L R, LFE
Sampling rate : 48.0 kHz
Frame rate : 31.250 FPS (1536 spf)
Compression mode : Lossy
Stream size : 267 MiB (18%)
Title : Dub - iTunes Russia
Language : Russian
Default : Yes
Forced : Yes

Audio #2
ID : 3
Format : AAC
Format/Info : Advanced Audio Codec
Format profile : LC
Codec ID : A_AAC
Duration : 1 h 37 min
Bit rate : 156 kb/s
Channel(s) : 2 channels
Channel positions : Front: L R
Sampling rate : 48.0 kHz
Frame rate : 46.875 FPS (1024 spf)
Compression mode : Lossy
Stream size : 108 MiB (7%)
Title : Original
Language : English
Default : No
Forced : No

Text #1
ID : 4
Format : UTF-8
Codec ID : S_TEXT/UTF8
Codec ID/Info : UTF-8 Plain Text
Duration : 1 h 35 min
Bit rate : 128 b/s
Count of elements : 1469
Stream size : 89.3 KiB (0%)
Title : Full
Language : Russian
Default : No
Forced : No

Text #2
ID : 5
Format : UTF-8
Codec ID : S_TEXT/UTF8
Codec ID/Info : UTF-8 Plain Text
Duration : 1 h 35 min
Bit rate : 82 b/s
Count of elements : 1472
Stream size : 57.4 KiB (0%)
Title : Full
Language : English
Default : No
Forced : No

Menu
00:00:00.000 : en:1
00:02:35.000 : en:2
00:06:47.000 : en:3
00:11:01.000 : en:4
00:13:32.000 : en:5
00:15:25.000 : en:6
00:17:03.000 : en:7
00:19:35.000 : en:8
00:21:35.000 : en:9
00:24:58.000 : en:10
00:27:08.000 : en:11
00:30:33.000 : en:12
00:34:59.000 : en:13
00:37:52.000 : en:14
00:40:18.000 : en:15
00:41:06.000 : en:16
00:42:30.000 : en:17
00:46:03.000 : en:18
00:48:41.000 : en:19
00:50:28.000 : en:20
00:55:06.000 : en:21
00:57:06.000 : en:22
01:00:41.000 : en:23
01:04:32.000 : en:24
01:10:36.000 : en:25
01:12:28.000 : en:26
01:14:09.000 : en:27
01:18:26.000 : en:28
01:26:49.000 : en:29
pb.wtf



Скачать В поисках Дори через торрент http://i5.imageban.ru/out/2016/10/25/29c91864bcd8ecb1b29de70bcdcbd1f9.png Скачать фильм В поисках Дори через торрент бесплантно в хорошем качестве Описание: Дори - синяя доброжелательная рыбка-хирург, страдающая провалами в памяти. Она упорно стремится избавиться от своего недуга и ... 9.3 10 12
Info! Золотая раздача, скачанное не засчитывается.
Торрент: Зарегистрирован [2016-10-25 14:34] · скачан: 1 015 раз
Статус: √ проверено
Размер: 1.45 GB
Как cкачать? Как скачать В поисках Дори через торрент | qTorrent

% Раздел Тема Автор DL S | L
Ultra HD (UHD: 2K, 4K, 8K) [ 8.84 GB ] В поисках Дори / Finding Dory [2016 Мультфильм UHD BDRip 2160p] DUB [] bober100 Скачать
1 | 0
Ultra HD (UHD: 2K, 4K, 8K) [ 41.17 GB ] В поисках Дори / Finding Dory [2016 Мультфильм UHD BDRemux 2160p] DUB [] +2xAVO bober100 Скачать
2 | 0
Иностранные мультфильмы [ 1.46 GB ] В поисках Дори / Finding Dory [2016 мультфильм BDRip] - [] Twi7ter Скачать
2 | 0
Иностранные мультфильмы [ 1.46 GB ] В поисках Дори / Finding Dory [2016 мультфильм HDRip] [ BD CEE] killermax2013 Скачать
2 | 0
Зарубежные Мультфильмы (WEB-DL 720p, 1080p) [ 3.99 GB ] В поисках Дори / Finding Dory [2016 мультфильм WEB-DL 1080p] - -Lexx- Скачать
1 | 0
Зарубежные Мультфильмы (BDRip 1080p, 720p, Blu-ray, BD-Remux) [ 5.78 GB ] В поисках Дори / Finding Dory [2016 мультфильм BDRip 1080p от еnvy / NNNB] DUB / Локализованный видеоряд еnvy Скачать
19 | 0
3D Мультфильмы [ 15.06 GB ] В поисках Дори в 3Д / Finding Dory 3D [2016 Мультфильм BDrip 1080p] DUB / OverUnder / Вертикальная стереопара serega768 Скачать
1 | 0

28-11-2019 20:33  

Отключить всю рекламу на сайте

25-10-2016 14:44 В поисках Дори Скачать торрент  

я плакалpb.wtf



28-09-2020 11:29 В поисках Дори Скачать торрент  

Норм мульт ?pb.wtf



    Дорогой пользователь! Огромная просьба, поблагодарите релизера, оцените раздачу и оставьте свои комментарий, если Вы скачали В поисках Дори через торрент бесплатно! Внесите свою лепту в развитие PiratBit!
    Комментировать посты могут только пользователи прошедшие не сложную регистрацию
    Показать сообщения:    

    В поисках Дори через торрент
    Скачать бесплатно В поисках Дори
    В поисках Дори скачать торрент
    В поисках Дори смотреть онлайн
    Cкачать фильм В поисках Дори бесплатно
    В поисках Дори скачать торрент в хорошем качестве
    В поисках Дори смотреть онлайн бесплатно в хорошем качестве


    Вы не можете начинать темы
    Вы не можете отвечать на сообщения
    Вы не можете редактировать свои сообщения
    Вы не можете удалять свои сообщения
    Вы не можете голосовать в опросах
    Вы не можете прикреплять файлы к сообщениям
    Вы можете скачивать файлы