Ссылка на приватное зеркало нашего сайта всего за 1$. Внимание количество ограничено!!!

2 сезон

iTunes

1 сезон

1

2 сезон

2 сезон

iTunes

1 сезон

RePack

30

Ultimate

ВАЖНО

ИГРА 18+

pack

RePack

MK11
pack

Забери бонус

RePack

jed

!!Акция!!

Alien_Rage

RePack

fifa19

RePack

Assassins Creed: Odyssey

RePack

NEED FOR SPEED™ PAYBACK

4 сезон

9 сезон

Бесстыжие 9 сезон

Все сериалы

все сериалы на PB.wtf

RePack

FAR CRY 5
  

Детективное агентство Дирка Джентли / Dirk Gently's Holistic Detective Agency / Сезон 1 / Серии 1-8 из 8 (Пако Кабесас / Paco Cabezas, Дин Паризо / Dean Parisot) [2016 , США, Великобритания, фантастика, комедия, WEB-DLRip-AVC] MVO [BaibaKo] pb.wtf

Детективное агентство Дирка Джентли через торрент pb.wtf

Размер: 6.4 GB | Добавлен: 3 года 11 мес. назад | Торрент скачан:54 раза
Скачать  

27-10-2016 06:43 Детективное агентство Дирка Джентли Скачать торрент  


Детективное агентство Дирка Джентли / Dirk Gently's Holistic Detective Agency



  • Год выпуска: 2016

  • Страна: США, Великобритания
  • Жанр: фантастика, комедия
  • Продолжительность: 00:52:46 (Серия)
  • Перевод: Профессиональный многоголосый [BaibaKo]
  • Режиссер: Пако Кабесас / Paco Cabezas, Дин Паризо / Dean Parisot, Майкл Патрик Джэнн / Michael Patrick Jann
  • В ролях:

    Кристиан Бако (Ed), Сэмюэл Барнетт (Dirk Gently), Нил Браун мл. (Estevez), Аарон Дуглас (Gordon Rimmer), Фиона Дуриф (Bart Curlish), Майкл Эклунд (Martin), Джейд Эшете (Farah Black), Мфо Коахо (Ken), Ханна Маркс (Amanda), Дастин Миллиган (Sergeant Hugo Friedkin), Мигель Сандовал (Colonel Scott Riggins), Ричард Шифф (Zimmerfield)


  • Комедийный триллер, рассказывающий о приключениях частного детектива Джентли и его невольного помощника Тодда. Каждый сезон они расследуют некую большую, казалось бы, совершенно безумную тайну и сталкиваются со странными и временами опасными персонажами. В каждой серии они приближаются к разгадке на несколько шагов, хотя их расследование страдает от недостатка логики.
  • Рейтинг:



  • Качество: WEB-DLRip-AVC
  • Формат: :MPEG-4
  • Видео кодек: AVC
  • Аудио кодек: AC3
  • Видео: 1024x576 (16:9), 1903 kbps, 23,976 fps, 0,135 bpp
  • Аудио №1: русский / 5.1 / 48 kHz / 384 kbps / 16 bit |[BaibaKo]|
  • Аудио №2: английский / 5.1 / 48 kHz / 384 kbps / 16 bit
  • Релиз от: GEKADOL

    Внимание! Раздача ведётся путём добавления новых серий; при каждом добавлении создаётся новый торрент. Чтобы начать докачку новой серии, пользователям необходимо сделать следующее:
    (1) остановить скачивание,
    (2) удалить старый торрент у себя из клиента (старые серии удалять не надо),
    (3) скачать новый торрент и запустить его у себя в клиенте вместо старого, при этом указать клиенту путь в старую папку куда и должно происходить скачивание новых серий.
    Ваш клиент при этом должен произвести хеширование (проверку) старой папки (если не производит сам - помогите ему сделать это), и будет докачивать только те серии которых у вас ещё нет. Старые серии при этом не удаляются, а продолжают раздаваться!
    Eсли вы уже удалили старые серии, то предотвратить повторную закачку старых серий можно, отжав галочку в соответствующих местах при запуске нового торрента. По возможности, желательно не удалять старые серии как можно дольше чтобы релизёр не столько продолжал раздавать старые серии, а смог сконцентрироваться на новых.

    General
    Complete name : H:\Детективное агентство Дирка Джентли (Dirk Gently’s Holistic Detective Agency 1)\Dirk.Gently's.Holistic.Detective.Agency.s01e01.WEB-DLRip-AVC.Rus.Eng.BaibaKo.tv.mp4
    Format : MPEG-4
    Format profile : Base Media
    Codec ID : isom (isom/iso2/avc1/mp41)
    File size : 1 010 MiB
    Duration : 52 min
    Overall bit rate : 2 677 kb/s
    Writing application : XviD4PSP 7.0.305 DAILY
    HDVideo : Yes
    encoding_info : MATROSKA / WEBM > MP4 Произвольный / H264 > X264 CBR 2000kbps HQ / AC3 > AC3 CBR 384kbps / AC3 > AC3 CBR 384kbps

    Video
    ID : 1
    Format : AVC
    Format/Info : Advanced Video Codec
    Format profile : High@L3.1
    Format settings, CABAC : Yes
    Format settings, ReFrames : 4 frames
    Codec ID : avc1
    Codec ID/Info : Advanced Video Coding
    Duration : 52 min
    Bit rate : 1 904 kb/s
    Nominal bit rate : 2 000 kb/s
    Width : 1 024 pixels
    Height : 576 pixels
    Display aspect ratio : 16:9
    Frame rate mode : Constant
    Frame rate : 23.976 (24000/1001) FPS
    Color space : YUV
    Chroma subsampling : 4:2:0
    Bit depth : 8 bits
    Scan type : Progressive
    Bits/(Pixel*Frame) : 0.135
    Stream size : 719 MiB (71%)
    Writing library : x264 core 148 r2721M 72d53ab
    Encoding settings : cabac=1 / ref=3 / deblock=1:-1:-1 / analyse=0x3:0x133 / me=hex / subme=7 / psy=1 / psy_rd=1.00:0.20 / mixed_ref=1 / me_range=16 / chroma_me=1 / trellis=1 / 8x8dct=1 / cqm=0 / deadzone=21,11 / fast_pskip=1 / chroma_qp_offset=-3 / threads=5 / lookahead_threads=1 / sliced_threads=0 / nr=0 / decimate=1 / interlaced=0 / bluray_compat=0 / constrained_intra=0 / bframes=3 / b_pyramid=2 / b_adapt=2 / b_bias=0 / direct=3 / weightb=1 / open_gop=0 / weightp=2 / keyint=230 / keyint_min=23 / scenecut=40 / intra_refresh=0 / rc_lookahead=40 / rc=cbr / mbtree=1 / bitrate=2000 / ratetol=1.0 / qcomp=0.60 / qpmin=0 / qpmax=69 / qpstep=4 / vbv_maxrate=2000 / vbv_bufsize=2000 / nal_hrd=none / filler=0 / ip_ratio=1.40 / aq=1:1.00

    Audio #1
    ID : 2
    Format : AC-3
    Format/Info : Audio Coding 3
    Mode extension : CM (complete main)
    Format settings, Endianness : Big
    Codec ID : ac-3
    Duration : 52 min
    Bit rate mode : Constant
    Bit rate : 384 kb/s
    Channel(s) : 6 channels
    Channel positions : Front: L C R, Side: L R, LFE
    Sampling rate : 48.0 kHz
    Frame rate : 31.250 FPS (1536 spf)
    Bit depth : 16 bits
    Compression mode : Lossy
    Stream size : 145 MiB (14%)
    Language : Russian
    Default : Yes
    Alternate group : 1

    Audio #2
    ID : 3
    Format : AC-3
    Format/Info : Audio Coding 3
    Mode extension : CM (complete main)
    Format settings, Endianness : Big
    Codec ID : ac-3
    Duration : 52 min
    Bit rate mode : Constant
    Bit rate : 384 kb/s
    Channel(s) : 6 channels
    Channel positions : Front: L C R, Side: L R, LFE
    Sampling rate : 48.0 kHz
    Frame rate : 31.250 FPS (1536 spf)
    Bit depth : 16 bits
    Compression mode : Lossy
    Stream size : 145 MiB (14%)
    Language : English
    Default : No
    Alternate group : 1





    Скриншоты:
    скриншот   скриншот   скриншот   скриншот   скриншот   скриншот   скриншот  
    скриншот  

    Раздача ведётся путём добавления новых серий. Добавлена 8 серия (14.12.2016).Просьба перекачать торрент файл.

    pb.wtf



  • Скачать Детективное агентство Дирка Джентли через торрент http://pic1.kartinco.top/images/11/kgnni.jpg Скачать фильм Детективное агентство Дирка Джентли через торрент бесплантно в хорошем качестве qw.png Комедийный триллер, рассказывающий о приключениях частного детектива Джентли и его невольного помощника Тодда. Каждый сезон они ... 9.4 10 16
    Торрент: Зарегистрирован [2016-12-14 01:03] · скачан: 54 раз
    Статус: √ проверено
    Размер: 6.4 GB
    Как cкачать? Как скачать Детективное агентство Дирка Джентли через торрент | qTorrent



    Последний раз редактировалось: GEKADOL (2016-12-14 01:03), всего редактировалось 7 раз(а)

    28-11-2019 20:33  

    Отключить всю рекламу на сайте

    07-11-2016 13:05 Детективное агентство Дирка Джентли Скачать торрент  

    Ххаахх!!! А сериальчик зажег!! Что-то новенькое. Будем делать посмотреть, что будет дальше... pb.wtf



    10-11-2016 18:14 Детективное агентство Дирка Джентли Скачать торрент  

    MalekUA писал(а):

    может я невнимательно смотрел, но сложилось впечатление, что сценарист обкурен.

    Засунь своё сложившееся впечатление себе в задницуpb.wtf



    29-11-2016 15:01 Детективное агентство Дирка Джентли Скачать торрент  

    красиво фантазия сценаристов зашкаливает каждая серия неожиданностьpb.wtf



    13-12-2016 10:48 Детективное агентство Дирка Джентли Скачать торрент  

    Вообще классно,сначала думаешь,что за нарики сняли этот бред.но потом картинка складывается и с каждой серией все интереснееpb.wtf



    14-12-2016 07:38 Детективное агентство Дирка Джентли Скачать торрент  

    На раздаче есть кто ?pb.wtf



    16-12-2016 18:08 Детективное агентство Дирка Джентли Скачать торрент  

    Чё блин происходит вообще ? pb.wtf



      Дорогой пользователь! Огромная просьба, поблагодарите релизера, оцените раздачу и оставьте свои комментарий, если Вы скачали Детективное агентство Дирка Джентли через торрент бесплатно! Внесите свою лепту в развитие PiratBit!
      Комментировать посты могут только пользователи прошедшие не сложную регистрацию
      Показать сообщения:    

      Детективное агентство Дирка Джентли через торрент
      Скачать бесплатно Детективное агентство Дирка Джентли
      Детективное агентство Дирка Джентли скачать торрент
      Детективное агентство Дирка Джентли смотреть онлайн
      Cкачать фильм Детективное агентство Дирка Джентли бесплатно
      Детективное агентство Дирка Джентли скачать торрент в хорошем качестве
      Детективное агентство Дирка Джентли смотреть онлайн бесплатно в хорошем качестве


      Вы не можете начинать темы
      Вы не можете отвечать на сообщения
      Вы не можете редактировать свои сообщения
      Вы не можете удалять свои сообщения
      Вы не можете голосовать в опросах
      Вы не можете прикреплять файлы к сообщениям
      Вы можете скачивать файлы