2 сезон

iTunes

MVO

1

2 сезон

iTunes

iTunes

1 сезон

RePack

30

Новинка

ВАЖНО

ИГРА 18+

pack

RePack

MK11
pack

Легкие деньги

RePack

jed

RePack

fifa19

RePack

RDR2

RePack

NEED FOR SPEED™ PAYBACK

4 сезон

9 сезон

Бесстыжие 9 сезон

Все сериалы

все сериалы на PB.wtf

RePack

FAR CRY 5

Anonymous, доброе утро, мы не успеваем собрать деньги на оплату серверов за декабрь и январь, помогите нам пожалуйста в это трудное время. В качестве благодарности мы отключим Вам всю рекламу на сайте (укажите свой ник в строку Ваше имя)!

×
  
Magnet ссылка

Заклятие 2 / The Conjuring 2 (Джеймс Ван) [2016, ужасы, триллер, детектив, HDRip, Дублированный [iTunes] pb.wtf

Заклятие 2 через торрент pb.wtf

Размер: 691 MB | Добавлен: 4 года 2 мес. назад | Торрент скачан:164 раза
Скачать  

27-10-2016 08:45 Заклятие 2 Скачать торрент  

Заклятие 2 / The Conjuring 2
««Новая подлинная история из архива Эда и Лоррейн Уореннов»»


Год выпуска: 2016
Страна: Канада, США
Жанр: ужасы, триллер, детектив

Продолжительность: 02:13:52
Перевод: Дублированный [iTunes]
Режиссер: Джеймс Ван
В ролях:

Патрик Уилсон (Ed Warren), Вера Фармига (Lorraine Warren), Мэдисон Вульф (Janet Hodgson), Фрэнсис О’Коннор (Peggy Hodgson), Лорен Эспозито (Margaret Hodgson), Бенжамин Хэй (Billy Hodgson), Патрик МакОли (Johnny Hodgson), Саймон МакБерни (Maurice Grosse), Мария Дойл Кеннеди (Peggy Nottingham), Саймон Делани (Vic Nottingham), Франка Потенте (Anita Gregory), Боб Адриан (Bill Wilkins)
Описание:
Фильм основан на случае, с которым столкнулись практикующие исследователи паранормальных явлений Эд и Лоррэйн Уоррены. На этот раз вызов будет из северного пригорода Лондона, где семья, состоящая из четырех детей и матери-одиночки, подвергается нападениям потусторонних сил. Супругам предстоит выяснить, какова природа этих явлений, полтергейст ли это, или что-то другое, и главное - почему именно этот дом и именно эта семья.
Мировая премьера: 13 мая 2016

Качество: HDRip Rip by PsYcho

Формат: AVI
Видео: XviD, 720x304 (2.35:1), 528 kbps, 23.976 fps, 0.101 bpp
Аудио: русский / AC3 / 2.0 / 48 kHz / 192 kbps / ||

Video
ID : 1
Format : MPEG-4 Visual
Format profile : Advanced Simple@L5
Format settings, BVOP : 2
Format settings, QPel : No
Format settings, GMC : No warppoints
Format settings, Matrix : Default (H.263)
Codec ID : V_MS/VFW/FOURCC / XVID
Codec ID/Hint : XviD
Duration : 2 h 13 min
Bit rate : 528 kb/s
Width : 720 pixels
Height : 304 pixels
Display aspect ratio : 2.35:1
Frame rate mode : Constant
Frame rate : 23.976 (23976/1000) FPS
Original frame rate : 23.976 (24000/1001) FPS
Color space : YUV
Chroma subsampling : 4:2:0
Bit depth : 8 bits
Scan type : Progressive
Compression mode : Lossy
Bits/(Pixel*Frame) : 0.101
Stream size : 506 MiB (73%)
Writing library : XviD 67
Default : Yes
Forced : No

Audio
ID : 2
Format : AC-3
Format/Info : Audio Coding 3
Mode extension : CM (complete main)
Format settings, Endianness : Big
Codec ID : A_AC3
Duration : 2 h 13 min
Bit rate mode : Constant
Bit rate : 192 kb/s
Channel(s) : 2 channels
Channel positions : Front: L R
Sampling rate : 48.0 kHz
Frame rate : 31.250 FPS (1536 spf)
Compression mode : Lossy
Stream size : 184 MiB (27%)
Language : Russian
Default : Yes
Forced : No

© Оформление by White Smoke pb.wtf



Скачать Заклятие 2 через торрент http://i6.imageban.ru/out/2016/10/27/3f31fbc16bc82cd820d5788f56ffe212.jpg Скачать фильм Заклятие 2 через торрент бесплантно в хорошем качестве Описание: Фильм основан на случае, с которым столкнулись практикующие исследователи паранормальных явлений Эд и Лоррэйн Уоррены. На этот ... 9.5 10 6
Торрент: Зарегистрирован [2016-10-27 08:45] · скачан: 164 раз
Статус: √ проверено
Размер: 691 MB
Как cкачать? Как скачать Заклятие 2 через торрент | UTorrent

% Раздел Тема Автор DL S | L
Фильмы 2016 [DVDrip, WEB-DLRip, HDrip] (DUB, MVO) [ 1.46 GB ] Заклятие 2 / The Conjuring 2 [2016 BDRip] - [] Twi7ter Скачать
1 | 0
Фильмы [HD 720p, 1080p] (Хороший звук DUB, MVO) [ 14.23 GB ] Заклятие 2 / The Conjuring 2 [2016 BDRip 1080p / ] Ворон Скачать
1 | 0
Фильмы (Blu-ray, BD-Remux, HDDVD) [ 24.89 GB ] Заклятие 2 / The Conjuring 2 [2016 BDRemux 1080p от ExKinoRay] Russian Mafia Скачать
1 | 0
Фильмы (Blu-ray, BD-Remux, HDDVD) [ 36.77 GB ] Заклятие 2 / The Conjuring 2 [2016 Blu-ray CEE 1080p] DUB bober100 Скачать
1 | 0
Фильмы 2016 [DVDrip, WEB-DLRip, HDrip] (DUB, MVO) [ 2.18 GB ] Заклятие 2 / The Conjuring 2 [2016 BDRip] - [] Twi7ter Скачать
1 | 0
Фильмы [HD 720p, 1080p] (Хороший звук DUB, MVO) [ 15.43 GB ] Заклятие / The Conjuring [2013 BDRip 1080p by msltel] DUB 2 x AVO VO msltel Скачать
1 | 0
Фильмы [HD 720p, 1080p] (Хороший звук DUB, MVO) [ 7.93 GB ] Заклятие 2 / The Conjuring 2 [2016 BDRip 720p] smaster Скачать
1 | 0


Последний раз редактировалось: PsYcho (2016-10-31 13:04), всего редактировалось 1 раз

28-11-2019 20:33  

Отключить всю рекламу на сайте

03-01-2017 19:30 Заклятие 2 Скачать торрент  

неплохо!pb.wtf



    Дорогой пользователь! Огромная просьба, поблагодарите релизера, оцените раздачу и оставьте свои комментарий, если Вы скачали Заклятие 2 через торрент бесплатно! Внесите свою лепту в развитие PiratBit!
    Комментировать посты могут только пользователи прошедшие не сложную регистрацию
    Показать сообщения:    

    Заклятие 2 через торрент
    Скачать бесплатно Заклятие 2
    Заклятие 2 скачать торрент
    Заклятие 2 смотреть онлайн
    Cкачать фильм Заклятие 2 бесплатно
    Заклятие 2 скачать торрент в хорошем качестве
    Заклятие 2 смотреть онлайн бесплатно в хорошем качестве


    Вы не можете начинать темы
    Вы не можете отвечать на сообщения
    Вы не можете редактировать свои сообщения
    Вы не можете удалять свои сообщения
    Вы не можете голосовать в опросах
    Вы не можете прикреплять файлы к сообщениям
    Вы можете скачивать файлы