Ссылка на приватное зеркало нашего сайта всего за 1$. Внимание количество ограничено!!!

2 сезон

iTunes

1 сезон

1

2 сезон

2 сезон

iTunes

1 сезон

RePack

30

Ultimate

ВАЖНО

ИГРА 18+

pack

RePack

MK11
pack

Забери бонус

RePack

jed

!!Акция!!

Alien_Rage

RePack

fifa19

RePack

Assassins Creed: Odyssey

RePack

NEED FOR SPEED™ PAYBACK

4 сезон

9 сезон

Бесстыжие 9 сезон

Все сериалы

все сериалы на PB.wtf

RePack

FAR CRY 5
  

Очень плохие мамочки / Bad Moms (Джон Лукас, Скотт Мур) [2016, комедия, HDRip] Дублированный [iTunes] pb.wtf

Очень плохие мамочки через торрент pb.wtf

Размер: 694 MB | Добавлен: 4 года назад | Торрент скачан:453 раза
Скачать  

27-10-2016 13:16 Очень плохие мамочки Скачать торрент  

Очень плохие мамочки / Bad Moms
««Party Like a Mother»»


Год выпуска: 2016
Страна: США
Жанр: комедия

Продолжительность: 01:40:57
Перевод: Дублированный [iTunes]
Режиссер: Джон Лукас, Скотт Мур
В ролях:

Мила Кунис (Amy), Кэтрин Хан (Carla), Кристен Белл (Kiki), Кристина Эпплгейт (Gwendolyn), Джада Пинкетт Смит (Stacy), Энни Мумоло (Vicky), Уна Лоуренс (Jane), Эмджей Энтони (Dylan), Дэвид Уолтон (Mike), Кларк Дьюк (Dale Kipler), Джей Эрнандес (Jessie Harkness), Уенделл Пирс (Principal Burr)
Описание:
Идеальная мать, прекрасная жена, хорошая домохозяйка с успешной карьерой... Но стоит немного расслабиться, как тебе сразу напоминают о твоих обязанностях. Почему только мужчины имеют право развлекаться? Сколько же можно это терпеть?! Пора команде отчаянных мамочек пуститься во все тяжкие.
Мировая премьера: 28 июля 2016

Качество: HDRip Rip by PsYcho

Формат: AVI
Видео: XviD, 720x304 (2.35:1), 767 kbps, 23.976 fps, 0.146 bpp
Аудио: русский / AC3 / 2.0 / 48 kHz / 192 kbps / ||

Video
ID : 1
Format : MPEG-4 Visual
Format profile : Advanced Simple@L5
Format settings, BVOP : 2
Format settings, QPel : No
Format settings, GMC : No warppoints
Format settings, Matrix : Default (H.263)
Codec ID : V_MS/VFW/FOURCC / XVID
Codec ID/Hint : XviD
Duration : 1 h 40 min
Bit rate : 768 kb/s
Width : 720 pixels
Height : 304 pixels
Display aspect ratio : 2.35:1
Frame rate mode : Constant
Frame rate : 23.976 (23976/1000) FPS
Original frame rate : 23.976 (24000/1001) FPS
Color space : YUV
Chroma subsampling : 4:2:0
Bit depth : 8 bits
Scan type : Progressive
Compression mode : Lossy
Bits/(Pixel*Frame) : 0.146
Stream size : 554 MiB (80%)
Writing library : XviD 67
Default : Yes
Forced : No

Audio
ID : 2
Format : AC-3
Format/Info : Audio Coding 3
Mode extension : CM (complete main)
Format settings, Endianness : Big
Codec ID : A_AC3
Duration : 1 h 40 min
Bit rate mode : Constant
Bit rate : 192 kb/s
Channel(s) : 2 channels
Channel positions : Front: L R
Sampling rate : 48.0 kHz
Frame rate : 31.250 FPS (1536 spf)
Compression mode : Lossy
Stream size : 139 MiB (20%)
Language : Russian
Default : Yes
Forced : No

© Оформление by White Smoke pb.wtf



Скачать Очень плохие мамочки через торрент http://i4.imageban.ru/out/2016/10/27/84e772d1e6e66d548dcba4ecbe734dde.jpg Скачать фильм Очень плохие мамочки через торрент бесплантно в хорошем качестве Описание: Идеальная мать, прекрасная жена, хорошая домохозяйка с успешной карьерой... Но стоит немного расслабиться, как тебе сразу ... 9.9 10 11
Info! Золотая раздача, скачанное не засчитывается.
Торрент: Зарегистрирован [2016-10-27 13:16] · скачан: 453 раз
Статус: √ проверено
Размер: 694 MB
Как cкачать? Как скачать Очень плохие мамочки через торрент | qTorrent

% Раздел Тема Автор DL S | L


Последний раз редактировалось: PsYcho (2016-10-31 13:05), всего редактировалось 1 раз

28-11-2019 20:33  

Отключить всю рекламу на сайте

30-10-2016 07:06 Очень плохие мамочки Скачать торрент  

кино мне понравилосьpb.wtf



    Дорогой пользователь! Огромная просьба, поблагодарите релизера, оцените раздачу и оставьте свои комментарий, если Вы скачали Очень плохие мамочки через торрент бесплатно! Внесите свою лепту в развитие PiratBit!
    Комментировать посты могут только пользователи прошедшие не сложную регистрацию
    Показать сообщения:    

    Очень плохие мамочки через торрент
    Скачать бесплатно Очень плохие мамочки
    Очень плохие мамочки скачать торрент
    Очень плохие мамочки смотреть онлайн
    Cкачать фильм Очень плохие мамочки бесплатно
    Очень плохие мамочки скачать торрент в хорошем качестве
    Очень плохие мамочки смотреть онлайн бесплатно в хорошем качестве


    Вы не можете начинать темы
    Вы не можете отвечать на сообщения
    Вы не можете редактировать свои сообщения
    Вы не можете удалять свои сообщения
    Вы не можете голосовать в опросах
    Вы не можете прикреплять файлы к сообщениям
    Вы можете скачивать файлы