Ссылка на приватное зеркало нашего сайта всего за 1$. Внимание количество ограничено!!!

2 сезон

iTunes

1 сезон

1

iTunes

iTunes

iTunes

1 сезон

RePack

30

ИГРА 18+

pack

ВАЖНО

!!Акция!!

Alien_RageХит недели

RePack

MK11
pack

Забери бонус

RePack

jed

!!Акция!!

Alien_Rage

RePack

fifa19

RePack

Assassins Creed: Odyssey

RePack

NEED FOR SPEED™ PAYBACK

4 сезон

9 сезон

Бесстыжие 9 сезон

Все сериалы

все сериалы на PB.wtf

RePack

FAR CRY 5
  

Короткий монтаж / Short Cuts (Роберт Олтмен) [1993, драма, комедия, BDRip 720p by msltel] MVO, AVO pb.wtf

Короткий монтаж через торрент pb.wtf

Размер: 8.36 GB | Добавлен: 3 года 11 мес. назад | Торрент скачан:44 раза
Скачать  

29-10-2016 06:45 Короткий монтаж Скачать торрент  

Название: Короткий монтаж
Оригинальное название: Short Cuts
Год выпуска: 1993
Страна: США
Жанр: драма, комедия
Продолжительность: 03:08:11
Перевод: профессиональный многоголосый, авторский

Режиссёр: Роберт Олтмен

В ролях: Энди МакДауэлл, Джулиана Мур, Кристофер Пенн, Лили Тейлор, Роберт Дауни мл., Мадлен Стоу, Тим Роббинс, Том Уэйтс, Фрэнсис МакДормэнд, Питер Галлахер, Лори Сингер, Бак Генри, Хьюи Левис, Роберт До'Куи, Чарлз Рокет, Энн Арчер, Брюс Дэвисон, Мэттью Модайн, Дженнифер Джейсон Ли, Лили Томлин, Фред Уорд, Джек Леммон

Описание: Философская и сюрреалистичная история о жизни людей в современном Лос-Анджелесе. В иронической манере показана жизнь нескольких семей, судьбы которых тесно переплетены по воле случайных обстоятельств. Пока городские службы борются с нашествием саранчи на Лос-Анджелес, его жители работают и развлекаются, встречаются и расстаются, изменяют и влюбляются. В суете привычной жизни им не хватает времени, чтобы остановиться и задуматься о подлинных ценностях. Внезапно в городе происходит землетрясение, и герои осознают бренность насущных проблем и начинают радоваться. Ведь жизнь продолжается, и можно попытаться взглянуть на мир проще...



Качество: BDRip 720p Сравнение с исходником
Формат: MKV
Видео: MPEG-4 AVC, 5014 Кбит/с, 1280x544, 23,976 кадра/с
Аудио 1: русский, AC3, 448 kbps, 6 ch, 48 kHz [профессиональный многоголосый, НТВ+]
Аудио 2: русский, AC3, 448 kbps, 6 ch, 48 kHz [авторский,Сергей Кузнецов ]
Аудио 3: английский, AC3, 448 kbps, 6 ch, 48 kHz [оригинал]
Субтитры: английские
Имеются поименованные главы/чаптеры.
Общее
Уникальный идентификатор : 245878767439858059581565761474282036886 (0xB8FA8730EA6D39D984D4B3B69D029E96)
Полное имя : D:\Video\Короткий монтаж.1993.BDRip.720p.mkv
Формат : Matroska
Версия формата : Version 4 / Version 2
Размер файла : 8,36 Гбайт
Продолжительность : 3 ч. 8 м.
Общий поток : 6360 Кбит/сек
Название фильма : Rip by msltel
Дата кодирования : UTC 2016-10-27 05:48:16
Программа кодирования : mkvmerge v8.2.0 ('World of Adventure') 64bit
Библиотека кодирования : libebml v1.3.1 + libmatroska v1.4.2

Видео
Идентификатор : 1
Формат : AVC
Формат/Информация : Advanced Video Codec
Профиль формата : High@L4.1
Параметр CABAC формата : Да
Параметр ReFrames формата : 9 кадров
Идентификатор кодека : V_MPEG4/ISO/AVC
Продолжительность : 3 ч. 8 м.
Битрейт : 5014 Кбит/сек
Ширина : 1280 пикселей
Высота : 544 пикселя
Соотношение сторон : 2,35:1
Режим частоты кадров : Постоянный
Частота кадров : 23,976 (24000/1001) кадра/сек
Цветовое пространство : YUV
Субдискретизация насыщенности : 4:2:0
Битовая глубина : 8 бит
Тип развёртки : Прогрессивная
Бит/(Пиксели*Кадры) : 0.300
Размер потока : 6,59 Гбайт (79%)
Заголовок : Rip by msltel
Библиотека кодирования : x264 core 146 r2538 121396c
Настройки программы : cabac=1 / ref=9 / deblock=1:-3:-3 / analyse=0x3:0x113 / me=umh / subme=10 / psy=1 / psy_rd=1.00:0.15 / mixed_ref=1 / me_range=32 / chroma_me=1 / trellis=2 / 8x8dct=1 / cqm=0 / deadzone=21,11 / fast_pskip=0 / chroma_qp_offset=-3 / threads=6 / lookahead_threads=1 / sliced_threads=0 / nr=0 / decimate=1 / interlaced=0 / bluray_compat=0 / constrained_intra=0 / bframes=12 / b_pyramid=2 / b_adapt=2 / b_bias=0 / direct=1 / weightb=1 / open_gop=0 / weightp=2 / keyint=230 / keyint_min=23 / scenecut=40 / intra_refresh=0 / rc_lookahead=40 / rc=crf / mbtree=0 / crf=21.0 / qcomp=0.60 / qpmin=0 / qpmax=69 / qpstep=4 / vbv_maxrate=40000 / vbv_bufsize=50000 / crf_max=0.0 / nal_hrd=none / filler=0 / ip_ratio=1.40 / pb_ratio=1.30 / aq=1:1.00
Язык : English
Default : Да
Forced : Нет

Аудио #1
Идентификатор : 2
Формат : AC-3
Формат/Информация : Audio Coding 3
Расширение режима : CM (complete main)
Параметр Endianness формата : Big
Идентификатор кодека : A_AC3
Продолжительность : 3 ч. 8 м.
Вид битрейта : Постоянный
Битрейт : 448 Кбит/сек
Каналы : 6 каналов
Расположение каналов : Front: L C R, Side: L R, LFE
Частота : 48,0 КГц
Частота кадров : 31,250 кадров/сек (1536 spf)
Метод сжатия : С потерями
Размер потока : 603 Мбайт (7%)
Заголовок : MVO (HTB+)
Язык : Russian
Default : Да
Forced : Нет

Аудио #2
Идентификатор : 3
Формат : AC-3
Формат/Информация : Audio Coding 3
Расширение режима : CM (complete main)
Параметр Endianness формата : Big
Идентификатор кодека : A_AC3
Продолжительность : 3 ч. 8 м.
Вид битрейта : Постоянный
Битрейт : 448 Кбит/сек
Каналы : 6 каналов
Расположение каналов : Front: L C R, Side: L R, LFE
Частота : 48,0 КГц
Частота кадров : 31,250 кадров/сек (1536 spf)
Метод сжатия : С потерями
Размер потока : 603 Мбайт (7%)
Заголовок : AVO (Сергей Кузнецов)
Язык : Russian
Default : Нет
Forced : Нет

Аудио #3
Идентификатор : 4
Формат : AC-3
Формат/Информация : Audio Coding 3
Расширение режима : CM (complete main)
Параметр Endianness формата : Big
Идентификатор кодека : A_AC3
Продолжительность : 3 ч. 8 м.
Вид битрейта : Постоянный
Битрейт : 448 Кбит/сек
Каналы : 6 каналов
Расположение каналов : Front: L C R, Side: L R, LFE
Частота : 48,0 КГц
Частота кадров : 31,250 кадров/сек (1536 spf)
Метод сжатия : С потерями
Размер потока : 603 Мбайт (7%)
Заголовок : original
Язык : English
Default : Нет
Forced : Нет

Текст
Идентификатор : 5
Формат : UTF-8
Идентификатор кодека : S_TEXT/UTF8
Идентификатор кодека/Информация : UTF-8 Plain Text
Продолжительность : 3 ч. 5 м.
Битрейт : 79 бит/сек
Count of elements : 2804
Размер потока : 109 Кбайт (0%)
Заголовок : английские
Язык : English
Default : Нет
Forced : Нет

Меню
00:00:00.000 : en:Opening Credits
00:09:44.042 : en:"Prisoner of Life"
00:12:27.246 : en:Stormy Weathers
00:17:20.581 : en:"Neighbors"
00:21:35.794 : en:"C-R-A-C-K"
00:28:01.221 : en:Casey's Accident
00:32:06.007 : en:"A Stroke of Luck"
00:36:25.058 : en:"Casey, wake up!"
00:39:58.521 : en:"One Big Candle"
00:42:13.489 : en:Dr. Wyman
00:44:48.269 : en:"How many clowns can you fit in that car?"
00:48:20.272 : en:The Body
00:52:34.193 : en:Suzy is Missing
00:56:44.568 : en:"Beyond Natural Color"
00:59:01.997 : en:Birthday Party
01:04:05.133 : en:"Conversation on a Bar Stool"
01:08:44.787 : en:String Players are Weird
01:15:09.797 : en:Father and Son
01:22:06.255 : en:Hit and Run
01:28:20.754 : en:"He's Playing Around"
01:35:37.440 : en:"An Unlucky Day"
01:43:02.218 : en:Virtual Reality
01:48:35.050 : en:"We Found a Body Up There"
01:52:13.435 : en:"To Hell with Love"
02:01:10.638 : en:"Till the Wheels Come Off"
02:08:31.370 : en:"This is Your Lucky Day"
02:14:03.911 : en:Code Blue
02:21:01.536 : en:"Will You Please Be Quiet, Please?"
02:30:13.379 : en:Jeopardy
02:36:29.880 : en:"I Don't Know You"
02:44:53.967 : en:Behind Closed Doors
02:48:30.934 : en:"A Smokin' Good Time"
02:54:26.915 : en:"I Threw it Away"
02:56:20.320 : en:The Earthquake
03:02:23.391 : en:"Here's to Lemonade" / End Credits
pb.wtf



Скачать Короткий монтаж через торрент http://s017.radikal.ru/i400/1610/69/fd2012b6a448.jpg Скачать фильм Короткий монтаж через торрент бесплантно в хорошем качестве Описание: Философская и сюрреалистичная история о жизни людей в современном Лос-Анджелесе. В иронической манере показана жизнь нескольких ... 10 10 1
Info! Золотая раздача, скачанное не засчитывается.
Торрент: Зарегистрирован [2016-10-29 06:45] · скачан: 44 раз
Статус: √ проверено
Размер: 8.36 GB
Как cкачать? Как скачать Короткий монтаж через торрент | qTorrent

28-11-2019 20:33  

Отключить всю рекламу на сайте

    Дорогой пользователь! Огромная просьба, поблагодарите релизера, оцените раздачу и оставьте свои комментарий, если Вы скачали Короткий монтаж через торрент бесплатно! Внесите свою лепту в развитие PiratBit!
    Комментировать посты могут только пользователи прошедшие не сложную регистрацию
    Показать сообщения:    

    Короткий монтаж через торрент
    Скачать бесплатно Короткий монтаж
    Короткий монтаж скачать торрент
    Короткий монтаж смотреть онлайн
    Cкачать фильм Короткий монтаж бесплатно
    Короткий монтаж скачать торрент в хорошем качестве
    Короткий монтаж смотреть онлайн бесплатно в хорошем качестве


    Вы не можете начинать темы
    Вы не можете отвечать на сообщения
    Вы не можете редактировать свои сообщения
    Вы не можете удалять свои сообщения
    Вы не можете голосовать в опросах
    Вы не можете прикреплять файлы к сообщениям
    Вы можете скачивать файлы