Доктор Стрэндж

Лицензия

Добыча

Дубляж

Дом дракона

1 сезон

Тор

Дубляж

В эфире

Дубляж

Там, где раки поют

MVO

Властелин колец

1 сезон

GLOBAL

pack

Рекомендуем

30

Пиратка

ВАЖНО

ВАЖНО

Ghostwire

Пиратка

jed

RePack

nioh2

RePack

RDR2

RePack

NEED FOR SPEED™ PAYBACK

RePack

скачать торрент

Кинопоиск HD

Острые козырьки 6 сезон

6 сезон

FAR CRY 6

RePack

скачать торрент

Лицензия

скачать торрент

MVO

1

1 сезон

скачать торрент

1 сезон

скачать торрент

Лицензия

  

187 / One Eight Seven (Кевин Рейнольдс) [1997, триллер, драма, BDRip 1080p от еnvy / NNNB] DVO, AVO

187 через торрент pb.wtf

Раздают: 2 [ 0 KB/s ] Качают: 1 [ 0 KB/s ]
Размер: 7.94 GB | Добавлен: 6 лет 1 мес. назад | Торрент скачан:303 раза
Смотреть онлайн | Скачать   

29-10-2016 07:25 187 Скачать торрент  

Информация Описание

Русское название: 187
Оригинальное название: One Eight Seven
Год выхода: 1997
Жанр: триллер, драма
Режиссер: Кевин Рейнольдс
Выпущено: США
Продолжительность: 01:59:00
Перевод: Профессиональный (двухголосый закадровый), Авторский (одноголосый закадровый)
В ролях: Сэмюэл Л. Джексон, Джон Хёрд, Келли Рауэн, Тони Плана, Карина Арройяве, Лобо Себастиан, Джек Келер, Джона Руни, Клифтон Коллинз мл., Энтвон Тэннер, Деметриус Наварро, Доминик Хоффман, Метод Мэн, Гай Торри, Ричард Рили, Лобо Себастьян, Джонни Богрис, Лиза Дель Мундо
Сюжет фильма

Где обитают ублюдки? Учитель из Бруклина Тревор Гарфилд видит их каждый день в школе. Это готовые бандиты, от которых можно ждать чего угодно. Один из них из мести совершает попытку убить Гарфилда.
После этого Гарфилд переезжает в Лос-Анджелес и. .. оказывается в таком же дерьме. Когда его терпению пришел конец, он заставил подонков расплачиваться кровью за каждый совершенный проступок.


Файл

Качество: BDRip 1080p (исходник Blu-Ray)
Формат: MKV
Видео: 1920x1080, 8988 Кбит/сек, 23,976 кадр/сек, AVC, x264, [email protected], 16:9, 0.181 Бит/[Пиксели*Кадры]
Аудио 1: AC-3, 192 Кбит/сек, 2 канала(ов), 48,0 КГц - Двухголосый закадровый / Русский
Аудио 2: AC-3, 192 Кбит/сек, 2 канала(ов), 48,0 КГц - Одноголосый закадровый, А.Гаврилов / Русский
Аудио 3: AC-3, 192 Кбит/сек, 2 канала(ов), 48,0 КГц - Оригинал / Английский
Субтитры: Русские | Полные, Английские | Полные
Форсированные субтитры: Нет
Чаптеры (Главы): Есть






Автор Рипа: Группа: Звуковые дорожки отдельно:


Format : Matroska
Format version : Version 2
File size : 7.94 GiB
Duration : 1 h 59 min
Overall bit rate : 9 550 kb/s
Movie name : One Eight Seven.(1997).BDRip.1080p.[envy]
Encoded date : UTC 2016-10-29 06:46:54
Writing application : mkvmerge v5.8.0 ('No Sleep / Pillow') built on Sep 2 2012 15:37:04
Writing library : libebml v1.2.3 + libmatroska v1.3.0

Video
ID : 1
Format : AVC
Format/Info : Advanced Video Codec
Format profile : [email protected]
Format settings, CABAC : Yes
Format settings, ReFrames : 4 frames
Codec ID : V_MPEG4/ISO/AVC
Duration : 1 h 59 min
Bit rate : 8 988 kb/s
Width : 1 920 pixels
Height : 1 080 pixels
Display aspect ratio : 16:9
Frame rate mode : Constant
Frame rate : 23.976 (24000/1001) FPS
Color space : YUV
Chroma subsampling : 4:2:0
Bit depth : 8 bits
Scan type : Progressive
Bits/(Pixel*Frame) : 0.181
Stream size : 7.30 GiB (92%)
Title : One Eight Seven.(1997).BDRip.1080p.[envy]
Writing library : x264 core 148 r2721 72d53ab
Encoding settings : cabac=1 / ref=4 / deblock=1:-3:-3 / analyse=0x3:0x113 / me=umh / subme=11 / psy=1 / psy_rd=1.00:0.00 / mixed_ref=1 / me_range=32 / chroma_me=1 / trellis=2 / 8x8dct=1 / cqm=0 / deadzone=21,11 / fast_pskip=0 / chroma_qp_offset=-2 / threads=12 / lookahead_threads=1 / sliced_threads=0 / nr=0 / decimate=1 / interlaced=0 / bluray_compat=0 / constrained_intra=0 / bframes=5 / b_pyramid=2 / b_adapt=2 / b_bias=0 / direct=3 / weightb=1 / open_gop=0 / weightp=2 / keyint=240 / keyint_min=23 / scenecut=40 / intra_refresh=0 / rc=2pass / mbtree=0 / bitrate=8988 / ratetol=2.0 / qcomp=0.60 / qpmin=0 / qpmax=69 / qpstep=4 / cplxblur=20.0 / qblur=0.5 / ip_ratio=1.40 / pb_ratio=1.30 / aq=2:0.80
Language : English
Default : Yes
Forced : No

Audio #1
ID : 2
Format : AC-3
Format/Info : Audio Coding 3
Mode extension : CM (complete main)
Format settings, Endianness : Big
Codec ID : A_AC3
Duration : 1 h 59 min
Bit rate mode : Constant
Bit rate : 192 kb/s
Channel(s) : 2 channels
Channel positions : Front: L R
Sampling rate : 48.0 kHz
Frame rate : 31.250 FPS (1536 spf)
Compression mode : Lossy
Stream size : 163 MiB (2%)
Title : DVO
Language : Russian
Default : Yes
Forced : No

Audio #2
ID : 3
Format : AC-3
Format/Info : Audio Coding 3
Mode extension : CM (complete main)
Format settings, Endianness : Big
Codec ID : A_AC3
Duration : 1 h 59 min
Bit rate mode : Constant
Bit rate : 192 kb/s
Channel(s) : 2 channels
Channel positions : Front: L R
Sampling rate : 48.0 kHz
Frame rate : 31.250 FPS (1536 spf)
Compression mode : Lossy
Stream size : 163 MiB (2%)
Title : AVO Gavrilov
Language : Russian
Default : No
Forced : No

Audio #3
ID : 4
Format : AC-3
Format/Info : Audio Coding 3
Mode extension : CM (complete main)
Format settings, Endianness : Big
Codec ID : A_AC3
Duration : 1 h 59 min
Bit rate mode : Constant
Bit rate : 192 kb/s
Channel(s) : 2 channels
Channel positions : Front: L R
Sampling rate : 48.0 kHz
Frame rate : 31.250 FPS (1536 spf)
Compression mode : Lossy
Stream size : 163 MiB (2%)
Title : Eng
Language : English
Default : No
Forced : No

Text #1
ID : 5
Format : UTF-8
Codec ID : S_TEXT/UTF8
Codec ID/Info : UTF-8 Plain Text
Title : Rus full
Language : Russian
Default : No
Forced : No

Text #2
ID : 6
Format : UTF-8
Codec ID : S_TEXT/UTF8
Codec ID/Info : UTF-8 Plain Text
Title : Eng full
Language : English
Default : No
Forced : No

Menu
00:00:00.000 : :Chapter 01
00:09:25.439 : :Chapter 02
00:20:04.203 : :Chapter 03
00:30:00.256 : :Chapter 04
00:39:20.733 : :Chapter 05
00:49:31.009 : :Chapter 06
01:00:21.701 : :Chapter 07
01:09:03.722 : :Chapter 08
01:22:40.330 : :Chapter 09
01:32:30.795 : :Chapter 10
01:39:32.800 : :Chapter 11
01:54:39.497 : :Chapter 12




Скачать 187 через торрент http://lostpic.net/images/2016/10/29/354385efa36afd1a7d7c705d5aa42b28.png Скачать, смотреть онлайн 187 бесплантно в хорошем качестве ОписаниеРусское название: 187 Оригинальное название: One Eight SevenГод выхода: 1997Жанр: триллер, драмаРежиссер: Кевин РейнольдсВыпущено: ... 9.9 10 9
Info! Золотая раздача, скачанное не засчитывается.
Торрент: Зарегистрирован [2016-10-29 07:25] · скачан: 303 раз
Статус: √ проверено
Размер: 7.94 GB
Как cкачать? Как скачать 187 через торрент | UTorrent

% Раздел Тема Автор DL S | L
Ultra HD (UHD: 2K, 4K, 8K) [ 43.57 GB ] 187 / One Eight Seven | AVO | 2160p sheker187 Скачать
1 | 0



Последний раз редактировалось: еnvy (2016-10-29 18:30), всего редактировалось 4 раз(а)

28-11-2019 20:33  


Отключить вcю реклaмy на сайте, в т.ч. и в плеере онлайн просмотра!

29-10-2016 07:28 187 Скачать торрент  

x264 [info]: frame I:1030 Avg QP:16.84 size:156839
x264 [info]: frame P:41922 Avg QP:19.29 size: 77838
x264 [info]: frame B:128241 Avg QP:21.83 size: 35733



    Дорогой пользователь! Огромная просьба, поблагодарите релизера, оцените раздачу и оставьте свои комментарий, если Вы скачали 187 через торрент бесплатно!!
    Комментировать посты могут только пользователи прошедшие не сложную регистрацию
    Показать сообщения:    


    187 через торрент
    Скачать бесплатно 187
    187 скачать торрент
    187 смотреть онлайн
    Cкачать фильм 187 бесплатно
    187 скачать торрент в хорошем качестве
    187 смотреть онлайн бесплатно в хорошем качестве
    Вы не можете начинать темы
    Вы не можете отвечать на сообщения
    Вы не можете редактировать свои сообщения
    Вы не можете удалять свои сообщения
    Вы не можете голосовать в опросах
    Вы не можете прикреплять файлы к сообщениям
    Вы можете скачивать файлы
    187 / One Eight Seven [1997, триллер, драма, BDRip 1080p от еnvy / NNNB] DVO, AVO смотреть онлайн, скачать торрент picoco.icu