Ссылка на приватное зеркало нашего сайта всего за 1$. Внимание количество ограничено!!!

2 сезон

iTunes

1 сезон

1

iTunes

iTunes

iTunes

1 сезон

RePack

30

ИГРА 18+

pack

ВАЖНО

!!Акция!!

Alien_RageХит недели

RePack

MK11
pack

Забери бонус

RePack

jed

!!Акция!!

Alien_Rage

RePack

fifa19

RePack

Assassins Creed: Odyssey

RePack

NEED FOR SPEED™ PAYBACK

4 сезон

9 сезон

Бесстыжие 9 сезон

Все сериалы

все сериалы на PB.wtf

RePack

FAR CRY 5
  

Сын маски / Son of the Mask (Лоуренс Гутерман ) [2005, фэнтези, комедия, семейный, BDRip 720p] Дубляж - [Лицензия] pb.wtf

Сын маски через торрент pb.wtf

Размер: 4.67 GB | Добавлен: 3 года 11 мес. назад | Торрент скачан:95 раз
Скачать  

29-10-2016 15:21 Сын маски Скачать торрент  

Сын маски / Son of the Mask

Год выпуска: 2005
Страна: США, Германия, Австралия
Жанр: фэнтези, комедия, семейный

Продолжительность: 01:36:10
Перевод: Дубляж - [Лицензия]
Режиссер: Лоуренс Гутерман
В ролях: Джейми Кеннеди (Tim Avery), Алан Камминг (Loki), Трейлор Ховард (Tonya Avery), Стивен Райт (Daniel Moss), Кэл Пенн (Jorge), Бен Стайн (Dr. Neuman), Боб Хоскинс (Odin), Лайам Фалконер (Alvey), Райан Фалконер (Alvey), Бретт Пикап (Museum Boy), Питер Каллэн (Museum Redneck), Эшли Лайонс (Museum Security Guard)
Описание:
Маска возвращается. Десятилетие спустя легендарная Маска Локи попадает в руки карикатуриста Тима Эвери, чей новорожденный сын имеет сверхъестественные способности. Малыш напару с собакой испытывают фантастические способности Маски, переворочивая дом вверх дном. Но настоящие проблемы возникают, когда сам Локи, бог озорства, отправляется на поиски магической Маски, готовый на все, чтобы вернуть ее себе...
Рейтинг:

MPAA: PG - Рекомендуется присутствие родителей
Качество: BDRip 720p
Формат: MKV
Видео: AVC, 1280x720 (16:9), 4994 kbps, 23,976 fps, 0,226 bpp
Аудио №1: русский / AC3 / 5.1 / 48 kHz / 448 kbps / |Dub R5|
Аудио №2: английский / DTS / 5.1 / 48 kHz / 1509 kbps / 24 bit

General
Unique ID : 243528955424164697359469277134532698143 (0xB735F883932F86A3865481844BE4E01F)
Complete name : D:\Proba\Son.of.the.Mask.2005.BluRay.720p.x264-SAiMORNY [PublicHD]\son.of.the.mask.720p.mkv
Format : Matroska
Format version : Version 4 / Version 2
File size : 4.67 GiB
Duration : 1 h 36 min
Overall bit rate : 6 950 kb/s
Encoded date : UTC 2016-10-28 06:10:15
Writing application : mkvmerge v9.5.0 ('Quiet Fire') 64bit
Writing library : libebml v1.3.4 + libmatroska v1.4.5

Video
ID : 1
Format : AVC
Format/Info : Advanced Video Codec
Format profile : High@L4.1
Format settings, CABAC : Yes
Format settings, ReFrames : 5 frames
Codec ID : V_MPEG4/ISO/AVC
Duration : 1 h 36 min
Bit rate : 4 994 kb/s
Width : 1 280 pixels
Height : 720 pixels
Display aspect ratio : 16:9
Frame rate mode : Constant
Frame rate : 23.976 (24000/1001) FPS
Color space : YUV
Chroma subsampling : 4:2:0
Bit depth : 8 bits
Scan type : Progressive
Bits/(Pixel*Frame) : 0.226
Stream size : 3.35 GiB (72%)
Writing library : x264 core 125 r2208 d9d2288
Encoding settings : cabac=1 / ref=5 / deblock=1:0:0 / analyse=0x3:0x133 / me=umh / subme=8 / psy=1 / psy_rd=1.00:0.00 / mixed_ref=1 / me_range=16 / chroma_me=1 / trellis=1 / 8x8dct=1 / cqm=0 / deadzone=21,11 / fast_pskip=1 / chroma_qp_offset=-2 / threads=24 / lookahead_threads=4 / sliced_threads=0 / nr=0 / decimate=1 / interlaced=0 / bluray_compat=0 / constrained_intra=0 / bframes=3 / b_pyramid=2 / b_adapt=1 / b_bias=0 / direct=1 / weightb=1 / open_gop=0 / weightp=2 / keyint=250 / keyint_min=23 / scenecut=40 / intra_refresh=0 / rc=2pass / mbtree=0 / bitrate=4994 / ratetol=1.0 / qcomp=0.60 / qpmin=0 / qpmax=69 / qpstep=4 / cplxblur=20.0 / qblur=0.5 / ip_ratio=1.40 / pb_ratio=1.30 / aq=1:1.00
Language : English
Default : No
Forced : No

Audio #1
ID : 2
Format : AC-3
Format/Info : Audio Coding 3
Mode extension : CM (complete main)
Format settings, Endianness : Big
Codec ID : A_AC3
Duration : 1 h 35 min
Bit rate mode : Constant
Bit rate : 448 kb/s
Channel(s) : 6 channels
Channel positions : Front: L C R, Side: L R, LFE
Sampling rate : 48.0 kHz
Frame rate : 31.250 FPS (1536 spf)
Compression mode : Lossy
Delay relative to video : 17 s 700 ms
Stream size : 307 MiB (6%)
Language : Russian
Default : Yes
Forced : No

Audio #2
ID : 3
Format : DTS
Format/Info : Digital Theater Systems
Mode : 16
Format settings, Endianness : Big
Codec ID : A_DTS
Duration : 1 h 36 min
Bit rate mode : Constant
Bit rate : 1 509 kb/s
Channel(s) : 6 channels
Channel positions : Front: L C R, Side: L R, LFE
Sampling rate : 48.0 kHz
Frame rate : 93.750 FPS (512 spf)
Bit depth : 24 bits
Compression mode : Lossy
Stream size : 1.01 GiB (22%)
Title : english
Language : English
Default : No
Forced : No
pb.wtf



Скачать Сын маски через торрент http://i82.fastpic.ru/big/2016/1029/a3/ef55295cd1c3603ec55fbd5cea5475a3.jpg Скачать фильм Сын маски через торрент бесплантно в хорошем качестве Описание: Маска возвращается. Десятилетие спустя легендарная Маска Локи попадает в руки карикатуриста Тима Эвери, чей новорожденный сын ... 8.8 10 9
Торрент: Зарегистрирован [2016-10-29 15:21] · скачан: 95 раз
Статус: T временная
Размер: 4.67 GB
Как cкачать? Как скачать Сын маски через торрент | qTorrent

% Раздел Тема Автор DL S | L
Фильмы 2001-2005 [ 1.46 GB ] Сын маски / Son of the Mask [2005 семья фэнтази DVDRip Пиратка] DragonHard Скачать
2 | 0

28-11-2019 20:33  

Отключить всю рекламу на сайте

29-10-2016 18:22 Сын маски Скачать торрент  

чушьpb.wtf



    Дорогой пользователь! Огромная просьба, поблагодарите релизера, оцените раздачу и оставьте свои комментарий, если Вы скачали Сын маски через торрент бесплатно! Внесите свою лепту в развитие PiratBit!
    Комментировать посты могут только пользователи прошедшие не сложную регистрацию
    Показать сообщения:    

    Сын маски через торрент
    Скачать бесплатно Сын маски
    Сын маски скачать торрент
    Сын маски смотреть онлайн
    Cкачать фильм Сын маски бесплатно
    Сын маски скачать торрент в хорошем качестве
    Сын маски смотреть онлайн бесплатно в хорошем качестве


    Вы не можете начинать темы
    Вы не можете отвечать на сообщения
    Вы не можете редактировать свои сообщения
    Вы не можете удалять свои сообщения
    Вы не можете голосовать в опросах
    Вы не можете прикреплять файлы к сообщениям
    Вы можете скачивать файлы