новый адрес пиратбит piratbit
Мега распродажа FORZA HORIZON 4 ULTIMATE+ВСЕ DLC+ОНЛАЙН всего за 499р. 349 руб. (супер цена). Внимание количество ограничено!!!

iTunes

1+1

iTunes

мы

iTunes

1

iTunes

Чернобыль

iTunes

Ральф против интернета

Лицензия

ПШазам

Лицензия

Игра престолов

Лицензия

30
pack

ВАЖНО

!!Акция!!

Alien_RageХит недели

RePack

Resident Evil 21

ИГРА 18+

pack

RePack

Metro:Exodus

!!Акция!!

Alien_Rage

RePack

fifa19

RePack

Assassins Creed: Odyssey

RePack

NEED FOR SPEED™ PAYBACK

3 сезон

9 сезон

Бесстыжие 9 сезон

Все сериалы

все сериалы на PB.wtf

RePack

FAR CRY 5
Ребята, катастрофически не хватает 1900р. для оплаты серверов за Октябрь (всвязи с блокировками трафик упал в 3 раза), 1-2р., выручайте.
  

Убийца / Killer (Мэт Казман / Matt Kazman) [2016, США, Короткометражка, драма, комедия, WEB-DLRip by _Один_777] VO pb.wtf

Убийца через торрент pb.wtf

Размер: 175 MB | Добавлен: 3 года назад | Торрент скачан:170 раз
Скачать  

30-10-2016 11:28 Убийца Скачать торрент  

Убийца / Killer

Год выпуска: 2016
Страна: США
Жанр: Короткометражка, драма, комедия
Продолжительность: 00:19:54
Перевод: Любительский (одноголосый закадровый)
Cубтитры: нет

Режиссер: Мэт Казман / Matt Kazman

В ролях: Хейл Лайтл, Майкл Барбиери, Джек Скотт, Джейк Китчин, Джудит Лайтфут Кларк, Ричард Прайс, Дэниэл Хофи
Тодд Генри...

Описание: Когда Дасти впервые решил занять свою руку делом, произошло непоправимое...


Сэмпл: http://sendfile.su/1278784


Качество видео: WEB-DLRip
Формат видео: AVI
Видео кодек: XviD
Аудио кодек: AC3
Видео: 720x304 (2.37:1), 23.976 fps, XviD build 73 ~1025 kbps avg, 0.20 bit/pixel
Аудио: 48 kHz, AC3 Dolby Digital, 2/0 (L,R) ch, ~192 kbps
Общее
Полное имя : D:\Ubijca.2016.WEB-DLRip.[Один 777].avi
Формат : AVI
Формат/Информация : Audio Video Interleave
Размер файла : 175 Мбайт
Продолжительность : 19 м.
Общий поток : 1227 Кбит/сек
Программа кодирования : VirtualDubMod 1.5.10.3 | www.virtualdub-fr.org || (build 2550/release)
Библиотека кодирования : VirtualDubMod build 2550/release

Видео
Идентификатор : 0
Формат : MPEG-4 Visual
Профиль формата : Advanced Simple@L5
Параметр BVOP формата : 1
Параметр QPel формата : Нет
Параметр GMC формата : Без точки перехода
Параметр матрицы формата : Default (H.263)
Идентификатор кодека : XVID
Идентификатор кодека/Подсказка : XviD
Продолжительность : 19 м.
Битрейт : 1026 Кбит/сек
Ширина : 720 пикселей
Высота : 304 пикселя
Соотношение сторон : 2,35:1
Частота кадров : 23,976 (23976/1000) кадра/сек
Цветовое пространство : YUV
Субдискретизация насыщенности : 4:2:0
Битовая глубина : 8 бит
Тип развёртки : Прогрессивная
Метод сжатия : С потерями
Бит/(Пиксели*Кадры) : 0.195
Размер потока : 146 Мбайт (84%)
Библиотека кодирования : XviD 73

Аудио
Идентификатор : 1
Формат : AC-3
Формат/Информация : Audio Coding 3
Расширение режима : CM (complete main)
Параметр Endianness формата : Big
Идентификатор кодека : 2000
Продолжительность : 19 м.
Вид битрейта : Постоянный
Битрейт : 192 Кбит/сек
Каналы : 2 канала
Расположение каналов : Front: L R
Частота : 48,0 КГц
Частота кадров : 31,250 кадров/сек (1536 spf)
Метод сжатия : С потерями
Размер потока : 27,3 Мбайт (16%)
Выравнивание : Разделение по промежуткам
Продолжительность промежутка : 42 мс. (1,00 видеокадр)
Время предзагрузки промежутка : 500 мс.
pb.wtf



Скачать Убийца через торрент http://i84.fastpic.ru/big/2016/1029/d1/3be4ff8e8175afbd8b887ec1c96325d1.jpg Скачать фильм Убийца через торрент бесплантно в хорошем качестве Описание: Когда Дасти впервые решил занять свою руку делом, произошло непоправимое... Сэмпл: http://sendfile.su/1278784 ... 7 10 3
Торрент: Зарегистрирован [2016-10-30 11:28] · скачан: 170 раз
Статус: √ проверено
Размер: 175 MB
Как cкачать? Как скачать Убийца через торрент | qTorrent

% Раздел Тема Автор DL S | L
T Фильмы 2018 [DVDrip, WEB-DLRip, HDrip] (DUB, MVO) [ 1.43 GB ] Убийца Кэйт! / Killer Kate [2018 BDRip] MVO [HDRezka Studio] - ExKinoRay Enigma2010 Скачать
8 | 0
T Фильмы 2018 [DVDrip, WEB-DLRip, HDrip] (DUB, MVO) [ 1.35 GB ] Убийца Кэйт! / Killer Kate [2018 BDRip-AVC] MVO [HDRezka Studio] - ExKinoRay Enigma2010 Скачать
3 | 0
Фильмы (Blu-ray, BD-Remux, HDDVD) [ 19.78 GB ] Убийца внутри меня / The Killer Inside Me [2010 BD Remux 1080р] DUB+VO+MVO bober100 Скачать
1 | 0
T Фильмы [HD 720p, 1080p] (Хороший звук DUB, MVO) [ 8.87 GB ] Ты должно быть убийца / You Might Be the Killer [2018 BDRip 1080p] MVO [HDrezka Studio] bober100 Скачать
2 | 0
Фильмы с авторской озвучкой [ 1.47 GB ] Язык-убийца / Killer Tongue [1996 DVDRip] AVO Леонид Ильич Скачать
1 | 0
T Фильмы 2018 [DVDrip, WEB-DLRip, HDrip] (DUB, MVO) [ 1.46 GB ] Госнелл: Суд над серийным убийцей / Gosnell: The Trial of America's Biggest Serial Killer [2018 WEB-DLRip] MVO [HDRezka Studio] - ExKinoRay Enigma2010 Скачать
2 | 0
T Фильмы (WEB-DL 720p, 1080p) [ 3.79 GB ] Госнелл: Суд над серийным убийцей / Gosnell: The Trial of America's Biggest Serial Killer [2018 WEB-DL 1080p] MVO [HDRezka Studio] bober100 Скачать
1 | 0


>> Регистрируемся здесь <<






Отзывы и комментарии о схеме читаем и пишем здесь: ---> Отзывы и комментарии о схеме

Новые благодарочки в телеграм довольных пользователей:
скриншот   скриншот   скриншот   скриншот   скриншот

30-10-2016 15:40 Убийца Скачать торрент  

Драма, комедия, боевик, фентези, историческое, сёнен (прочая х...ренота, которую под ВСЕ японские фильмы и мультики пишут), документальное и тд.pb.wtf



30-10-2016 16:38 Убийца Скачать торрент  

полнейшая дуротаpb.wtf



    Дорогой пользователь! Огромная просьба, поблагодарите релизера, оцените раздачу и оставьте свои комментарий, если Вы скачали Убийца через торрент бесплатно! Внесите свою лепту в развитие PiratBit!
    Комментировать посты могут только пользователи прошедшие не сложную регистрацию
    Показать сообщения:    

    Убийца через торрент
    Скачать бесплатно Убийца
    Убийца скачать торрент
    Убийца смотреть онлайн
    Cкачать фильм Убийца бесплатно
    Убийца скачать торрент в хорошем качестве
    Убийца смотреть онлайн бесплатно в хорошем качестве


    Вы не можете начинать темы
    Вы не можете отвечать на сообщения
    Вы не можете редактировать свои сообщения
    Вы не можете удалять свои сообщения
    Вы не можете голосовать в опросах
    Вы не можете прикреплять файлы к сообщениям
    Вы можете скачивать файлы