Ссылка на приватное зеркало нашего сайта всего за 1$. Внимание количество ограничено!!!

2 сезон

iTunes

1 сезон

1

2 сезон

2 сезон

iTunes

1 сезон

RePack

30

Ultimate

ВАЖНО

ИГРА 18+

pack

RePack

MK11
pack

Забери бонус

RePack

jed

!!Акция!!

Alien_Rage

RePack

fifa19

RePack

Assassins Creed: Odyssey

RePack

NEED FOR SPEED™ PAYBACK

4 сезон

9 сезон

Бесстыжие 9 сезон

Все сериалы

все сериалы на PB.wtf

RePack

FAR CRY 5
  

Электронные жучки / Багз / Bugs / Сезон: 1-4 / Серии: 1-40 из 40 (Джон Страуд / John Stroud) [1995-1998, детектив, фантастика, приключения, DVDRip] [MVO] (МногоTV) pb.wtf

Электронные жучки через торрент pb.wtf

Размер: 27.43 GB | Добавлен: 4 года назад | Торрент скачан:41 раз
Скачать  

31-10-2016 22:34 Электронные жучки Скачать торрент  

Электронные жучки / Багз / Bugs
Год выпуска: 1995-1998
Страна: Великобритания
Жанр: детектив, фантастика, приключения
Продолжительность: 40 x ~ 00:49:42
Перевод: Профессиональный (многоголосый закадровый) - МногоTV

Режиссёр: Джон Страуд / John Stroud

В ролях: Джэй Гриффитс, Джесси Бердсалл, Крейг МакЛоклен, Ян Харви, Паула Хант, Мартин МакДугалл, Стефен Хотон, Гарет Маркс, Майкл Грандадж, Джозеф Мэй

Описание: Команда из трех профессионалов в своем деле (Эд, Ник и Рос) расследует преступления, совершенные злыми гениями научно-технической мысли с помощью новейших технологий.



Качество: DVDRip
Формат: AVI
Видео: 624x480 (1.30:1), 25 fps, XviD build 73 ~1794 kbps avg, 0.24 bit/pixel
Аудио: 48 kHz, AC3 Dolby Digital, 2/0 (L,R) ch, ~224 kbps - 1, 2 сезоны
Аудио: 48 kHz, AC3 Dolby Digital, 2/0 (L,R) ch, ~192 kbps - 3, 4 сезоны
Субтитры: отсутствуют
Общее
Полное имя : H:\Bugs.1995-1998.dvdrip_[teko]\Season_01\s01e01_Out.Of.The.Hive.avi
Формат : AVI
Формат/Информация : Audio Video Interleave
Размер файла : 721 Мбайт
Продолжительность : 49 м.
Общий поток : 2028 Кбит/сек
Программа кодирования : VirtualDubMod 1.5.10.3 | www.virtualdub-fr.org || (build 2550/release)
Библиотека кодирования : VirtualDubMod build 2550/release
Видео
Идентификатор : 0
Формат : MPEG-4 Visual
Профиль формата : Advanced Simple@L5
Параметр BVOP формата : 1
Параметр QPel формата : Нет
Параметр GMC формата : Без точки перехода
Параметр матрицы формата : Выборочная
Идентификатор кодека : XVID
Идентификатор кодека/Подсказка : XviD
Продолжительность : 49 м.
Битрейт : 1795 Кбит/сек
Ширина : 624 пикселя
Высота : 480 пикселей
Соотношение сторон : 4:3
Частота кадров : 25,000 кадров/сек
Цветовое пространство : YUV
Субдискретизация насыщенности : 4:2:0
Битовая глубина : 8 бит
Тип развёртки : Прогрессивная
Метод сжатия : С потерями
Бит/(Пиксели*Кадры) : 0.240
Размер потока : 638 Мбайт (89%)
Библиотека кодирования : XviD 73
Аудио
Идентификатор : 1
Формат : AC-3
Формат/Информация : Audio Coding 3
Расширение режима : CM (complete main)
Параметр Endianness формата : Big
Идентификатор кодека : 2000
Продолжительность : 49 м.
Вид битрейта : Постоянный
Битрейт : 224 Кбит/сек
Каналы : 2 канала
Расположение каналов : Front: L R
Частота : 48,0 КГц
Битовая глубина : 16 бит
Метод сжатия : С потерями
Размер потока : 79,3 Мбайт (11%)
Выравнивание : Разделение по промежуткам
Продолжительность промежутка : 40 мс. (1,00 видеокадр)
Время предзагрузки промежутка : 500 мс.
pb.wtf



Скачать Электронные жучки через торрент http://i4.imageban.ru/out/2015/04/10/2c0f65795f0d1f4a4d14fe23f54d4c93.jpg Скачать фильм Электронные жучки через торрент бесплантно в хорошем качестве Описание: Команда из трех профессионалов в своем деле (Эд, Ник и Рос) расследует преступления, совершенные злыми гениями научно-технической ... 9.7 10 12
Info! Золотая раздача, скачанное не засчитывается.
Торрент: Зарегистрирован [2016-10-31 22:34] · скачан: 41 раз
Статус: √ проверено
Размер: 27.43 GB
Как cкачать? Как скачать Электронные жучки через торрент | qTorrent

28-11-2019 20:33  

Отключить всю рекламу на сайте

31-10-2016 22:51 Электронные жучки Скачать торрент  

Рейтинг зашкаливает! Реально прикольный-сериал?pb.wtf



31-10-2016 23:00 Электронные жучки Скачать торрент  

midnight_man писал(а):

Рейтинг зашкаливает! Реально прикольный-сериал?

pb.wtf



01-11-2016 02:12 Электронные жучки Скачать торрент  

Сериал очень старый - смотрел его лет 15 назад. Тогда понравился. Попробую освежить память.pb.wtf



01-11-2016 02:22 Электронные жучки Скачать торрент  

midnight_man писал(а):

Рейтинг зашкаливает! Реально прикольный-сериал?

отличный был сериал.pb.wtf



01-11-2016 05:27 Электронные жучки Скачать торрент  

сериал на любителя, а так интересный был в свое времяpb.wtf



    Дорогой пользователь! Огромная просьба, поблагодарите релизера, оцените раздачу и оставьте свои комментарий, если Вы скачали Электронные жучки через торрент бесплатно! Внесите свою лепту в развитие PiratBit!
    Комментировать посты могут только пользователи прошедшие не сложную регистрацию
    Показать сообщения:    

    Электронные жучки через торрент
    Скачать бесплатно Электронные жучки
    Электронные жучки скачать торрент
    Электронные жучки смотреть онлайн
    Cкачать фильм Электронные жучки бесплатно
    Электронные жучки скачать торрент в хорошем качестве
    Электронные жучки смотреть онлайн бесплатно в хорошем качестве


    Вы не можете начинать темы
    Вы не можете отвечать на сообщения
    Вы не можете редактировать свои сообщения
    Вы не можете удалять свои сообщения
    Вы не можете голосовать в опросах
    Вы не можете прикреплять файлы к сообщениям
    Вы можете скачивать файлы