Ссылка на приватное зеркало нашего сайта всего за 1$. Внимание количество ограничено!!!

2 сезон

iTunes

1 сезон

1

iTunes

iTunes

iTunes

1 сезон

RePack

30

ИГРА 18+

pack

ВАЖНО

!!Акция!!

Alien_RageХит недели

RePack

MK11
pack

Забери бонус

RePack

jed

!!Акция!!

Alien_Rage

RePack

fifa19

RePack

Assassins Creed: Odyssey

RePack

NEED FOR SPEED™ PAYBACK

4 сезон

9 сезон

Бесстыжие 9 сезон

Все сериалы

все сериалы на PB.wtf

RePack

FAR CRY 5
  

Ледниковый период: Столкновение неизбежно / Ice Age: Collision Course (Майк Тёрмайер, Гален Т. Чу) [2016, мультфильм, фантастика, комедия, HDRip-AVC, Дублированный [iTunes] pb.wtf

Ледниковый период: Столкновение неизбежно через торрент pb.wtf

Размер: 2.05 GB | Добавлен: 3 года 11 мес. назад | Торрент скачан:479 раз
Скачать  

31-10-2016 22:56 Ледниковый период: Столкновение неизбежно Скачать торрент  

Ледниковый период: Столкновение неизбежно / Ice Age: Collision Course
««Маленький шаг для него. Большая проблема для всех»»


Год выпуска: 2016
Страна: США
Жанр: мультфильм, фантастика, комедия, приключения, семейный

Продолжительность: 01:34:32
Перевод: Дублированный [iTunes]
Режиссер: Майк Тёрмайер, Гален Т. Чу
В ролях:

Рэй Романо (Manny, озвучка), Джон Легуизамо (Sid, озвучка), Дэнис Лири (Diego, озвучка), Куин Латифа (Ellie, озвучка), Шонн Уильям Скотт (Crash, озвучка), Саймон Пегг (Buck / Pythagorus Buck / Robo Buck, озвучка), Дженнифер Лопез (Shira, озвучка), Нил Тайсон (Neil deBuck Weasel, озвучка), Джесси Тайлер Фергюсон (Shangri Llama, озвучка), Джесси Джей (Brooke, озвучка), Кеке Палмер (Peaches, озвучка), Адам Дивайн (Julian, озвучка)
Описание:
Отчаянная погоня за неуловимым желудем катапультирует Скрата прямо в космос, где он случайно запускает целую серию космических событий. Именно они изменят весь мир Ледникового периода и станут реальной угрозой для него. Чтобы спастись, Сид, Мэнни, Диего и остальные звери должны покинуть свои дома, отправиться в забавное и захватывающее приключение в экзотические новые земли и встретиться со множеством красочных новых персонажей.
Мировая премьера: 19 июня 2016

Качество: HDRip-AVC Rip by PsYcho

Формат: MKV
Видео: AVC, 1024x426 (2.40:1), 2717 kbps, 23.976 fps, 0.260 bpp
Аудио: русский / AC3 / 2.0 / 48 kHz / 384 kbps / ||

Video
ID : 1
Format : AVC
Format/Info : Advanced Video Codec
Format profile : High@L4.1
Format settings, CABAC : Yes
Format settings, ReFrames : 12 frames
Codec ID : V_MPEG4/ISO/AVC
Duration : 1 h 34 min
Bit rate : 2 717 kb/s
Width : 1 024 pixels
Height : 426 pixels
Display aspect ratio : 2.40:1
Frame rate mode : Constant
Frame rate : 23.976 (24000/1001) FPS
Color space : YUV
Chroma subsampling : 4:2:0
Bit depth : 8 bits
Scan type : Progressive
Bits/(Pixel*Frame) : 0.260
Stream size : 1.79 GiB (88%)
Writing library : x264 core 148 r2638 7599210
Encoding settings : cabac=1 / ref=12 / deblock=1:-3:-3 / analyse=0x3:0x113 / me=umh / subme=9 / psy=1 / psy_rd=1.00:0.00 / mixed_ref=1 / me_range=32 / chroma_me=1 / trellis=2 / 8x8dct=1 / cqm=0 / deadzone=21,11 / fast_pskip=1 / chroma_qp_offset=-2 / threads=6 / lookahead_threads=1 / sliced_threads=0 / nr=0 / decimate=1 / interlaced=0 / bluray_compat=0 / constrained_intra=0 / bframes=12 / b_pyramid=2 / b_adapt=2 / b_bias=10 / direct=1 / weightb=0 / open_gop=0 / weightp=2 / keyint=240 / keyint_min=23 / scenecut=40 / intra_refresh=0 / rc_lookahead=40 / rc=2pass / mbtree=1 / bitrate=2717 / ratetol=1.0 / qcomp=0.85 / qpmin=0 / qpmax=69 / qpstep=4 / cplxblur=20.0 / qblur=0.5 / ip_ratio=1.40 / aq=1:1.00
Language : Russian
Default : Yes
Forced : No

Audio
ID : 2
Format : AC-3
Format/Info : Audio Coding 3
Mode extension : CM (complete main)
Format settings, Endianness : Big
Codec ID : A_AC3
Duration : 1 h 34 min
Bit rate mode : Constant
Bit rate : 384 kb/s
Channel(s) : 6 channels
Channel positions : Front: L C R, Side: L R, LFE
Sampling rate : 48.0 kHz
Frame rate : 31.250 FPS (1536 spf)
Compression mode : Lossy
Stream size : 260 MiB (12%)
Language : Russian
Default : Yes
Forced : No

© Оформление by White Smoke pb.wtf



Скачать Ледниковый период: Столкновение неизбежно через торрент http://pic.kartinco.top/images/11/33t3x.jpg Скачать фильм Ледниковый период: Столкновение неизбежно через торрент бесплантно в хорошем качестве Описание: Отчаянная погоня за неуловимым желудем катапультирует Скрата прямо в космос, где он случайно запускает целую серию космических ... 9.7 10 10
Info! Золотая раздача, скачанное не засчитывается.
Торрент: Зарегистрирован [2016-10-31 23:24] · скачан: 479 раз
Статус: √ проверено
Размер: 2.05 GB
Как cкачать? Как скачать Ледниковый период: Столкновение неизбежно через торрент | qTorrent

% Раздел Тема Автор DL S | L
Зарубежные Мультфильмы (BDRip 1080p, 720p, Blu-ray, BD-Remux) [ 20.27 GB ] Ледниковый период: Столкновение неизбежно / Ice Age: Collision Course [2016 Мультфильм BD Remux 1080p] DUB [] bober100 Скачать
1 | 0
Ultra HD (UHD: 2K, 4K, 8K) [ 32.48 GB ] Ледниковый период: Столкновение неизбежно / Ice Age: Collision Course [2016 мультфильм UHD BDRemux 2160p] [] sheker187 Скачать
1 | 0
Иностранные мультфильмы [ 1.46 GB ] Ледниковый период: Столкновение неизбежно / Ice Age: Collision Course [2016 мультфильм HDRip "BD EUR"] coc900 Скачать
2 | 0
Иностранные мультфильмы [ 1.42 GB ] Ледниковый период: Столкновение неизбежно / Ice Age: Collision Course [2016 мультфильм BDRip] DUB Twi7ter Скачать
1 | 0
Зарубежные Мультфильмы (BDRip 1080p, 720p, Blu-ray, BD-Remux) [ 7.76 GB ] Ледниковый период: Столкновение неизбежно / Ice Age: Collision Course [2016 мультфильм BDRip 1080p] - -Lexx- Скачать
1 | 0
Иностранные мультфильмы [ 1.41 GB ] Ледниковый период: Столкновение неизбежно / Ice Age: Collision Course [2016 мультфильм BDRip] DUB bober100 Скачать
1 | 0
3D Мультфильмы [ 9.9 GB ] Ледниковый период: Столкновение неизбежно в 3Д / Ice Age: Collision Course 3D [2016 Мультфильм BDrip 1080p] DUB OverUnder / Вертикальная стереопара serega768 Скачать
1 | 0


Последний раз редактировалось: PsYcho (2016-11-01 07:25), всего редактировалось 1 раз

28-11-2019 20:33  

Отключить всю рекламу на сайте

    Дорогой пользователь! Огромная просьба, поблагодарите релизера, оцените раздачу и оставьте свои комментарий, если Вы скачали Ледниковый период: Столкновение неизбежно через торрент бесплатно! Внесите свою лепту в развитие PiratBit!
    Комментировать посты могут только пользователи прошедшие не сложную регистрацию
    Показать сообщения:    

    Ледниковый период: Столкновение неизбежно через торрент
    Скачать бесплатно Ледниковый период: Столкновение неизбежно
    Ледниковый период: Столкновение неизбежно скачать торрент
    Ледниковый период: Столкновение неизбежно смотреть онлайн
    Cкачать фильм Ледниковый период: Столкновение неизбежно бесплатно
    Ледниковый период: Столкновение неизбежно скачать торрент в хорошем качестве
    Ледниковый период: Столкновение неизбежно смотреть онлайн бесплатно в хорошем качестве


    Вы не можете начинать темы
    Вы не можете отвечать на сообщения
    Вы не можете редактировать свои сообщения
    Вы не можете удалять свои сообщения
    Вы не можете голосовать в опросах
    Вы не можете прикреплять файлы к сообщениям
    Вы можете скачивать файлы