Ссылка на приватное зеркало нашего сайта всего за 1$. Внимание количество ограничено!!!

2 сезон

iTunes

1 сезон

1

iTunes

iTunes

iTunes

1 сезон

RePack

30

ИГРА 18+

pack

ВАЖНО

!!Акция!!

Alien_RageХит недели

RePack

MK11
pack

Забери бонус

RePack

jed

!!Акция!!

Alien_Rage

RePack

fifa19

RePack

Assassins Creed: Odyssey

RePack

NEED FOR SPEED™ PAYBACK

4 сезон

9 сезон

Бесстыжие 9 сезон

Все сериалы

все сериалы на PB.wtf

RePack

FAR CRY 5
  

Первое воскресенье / First Sunday (Дэвид Е. Талберт) [2008, комедия, криминал, BDRip 1080p от еnvy / NNNB] MVO pb.wtf

Первое воскресенье через торрент pb.wtf

Качают: 2 [ 0 KB/s ]
Размер: 7.75 GB | Добавлен: 3 года 11 мес. назад | Торрент скачан:86 раз
Скачать  

01-11-2016 14:04 Первое воскресенье Скачать торрент  

Информация о фильме

Русское название: Первое воскресенье
Оригинальное название: First Sunday
Год выхода: 2008
Жанр: комедия, криминал
Режиссер: Дэвид Е. Талберт
Выпущено: США
Продолжительность: 01:37:59
Перевод: Профессиональный (многоголосый, закадровый)
В ролях: Aйс Кьюб, Кэт Уильямс, Трэйси Морган, Лоретта Дивайн, Майкл Бич, Кит Дэвид, Реджина Холл, Малинда Уильямс, Чи МакБрайд, Клифтон Пауэлл
Сюжет фильма

Приговоренный к 5000 часам общественных работ незадачливый жулик Дюрелл узнает, что вдобавок ко всему может лишиться собственного сына, которого бывшая подруга решила увезти в другой штат, если он не расплатится со старым долгом - 17 тысяч долларов. Из-за безвыходности ситуации жизнь его превращается в сущий кошмар. И вместе со своим закадычным другом Ли Джоном они бегом бросаются в местную церковь. Но отнюдь не для того, чтобы замаливать свои грехи. Беря за основу истину, что Бог помогает тем, кто помогает себе сам, они расчитывают взять церковно-приходскую кассу. Но каково же их удивление, когда они обнаруживают, что касса уже пуста. Дюреллу приходится взять в заложники прихожан, чтобы выяснить, кто из верующих присвоил его добычу!!! Кто и кого теперь наставит на путь истинный?


Файл

Качество: BDRip 1080p (исходник Blu-Ray)
Формат: MKV
Видео: 1918x1040, 10052 Кбит/сек, 23,976 кадр/сек, AVC, x264, High@L4.1, 1.85:1, 0.210 Бит/[Пиксели*Кадры]
Аудио 1: AC-3, 640 Кбит/сек, 6 канала(ов), 48,0 КГц - Многоголосый закадровый / Русский
Аудио 2: AC-3, 640 Кбит/сек, 6 канала(ов), 48,0 КГц - Оригинал / Английский
Субтитры: Английские | Полные
Форсированные субтитры: Нет
Чаптеры (Главы): Есть






Автор Рипа: Группа:


Format : Matroska
Format version : Version 2
File size : 7.75 GiB
Duration : 1 h 37 min
Overall bit rate : 11.3 Mb/s
Movie name : First Sunday.(2008).BDRip.1080p.[envy]
Encoded date : UTC 2016-11-01 13:27:36
Writing application : mkvmerge v5.8.0 ('No Sleep / Pillow') built on Sep 2 2012 15:37:04
Writing library : libebml v1.2.3 + libmatroska v1.3.0

Video
ID : 1
Format : AVC
Format/Info : Advanced Video Codec
Format profile : High@L4.1
Format settings, CABAC : Yes
Format settings, ReFrames : 4 frames
Codec ID : V_MPEG4/ISO/AVC
Duration : 1 h 37 min
Bit rate : 10.1 Mb/s
Width : 1 918 pixels
Height : 1 040 pixels
Display aspect ratio : 1.85:1
Frame rate mode : Constant
Frame rate : 23.976 (24000/1001) FPS
Color space : YUV
Chroma subsampling : 4:2:0
Bit depth : 8 bits
Scan type : Progressive
Bits/(Pixel*Frame) : 0.210
Stream size : 6.72 GiB (87%)
Title : First Sunday.(2008).BDRip.1080p.[envy]
Writing library : x264 core 148 r2721 72d53ab
Encoding settings : cabac=1 / ref=4 / deblock=1:-3:-3 / analyse=0x3:0x113 / me=umh / subme=11 / psy=1 / psy_rd=1.00:0.00 / mixed_ref=1 / me_range=32 / chroma_me=1 / trellis=2 / 8x8dct=1 / cqm=0 / deadzone=21,11 / fast_pskip=0 / chroma_qp_offset=-2 / threads=12 / lookahead_threads=1 / sliced_threads=0 / nr=0 / decimate=1 / interlaced=0 / bluray_compat=0 / constrained_intra=0 / bframes=5 / b_pyramid=2 / b_adapt=2 / b_bias=0 / direct=3 / weightb=1 / open_gop=0 / weightp=2 / keyint=240 / keyint_min=23 / scenecut=40 / intra_refresh=0 / rc=2pass / mbtree=0 / bitrate=10052 / ratetol=2.0 / qcomp=0.60 / qpmin=0 / qpmax=69 / qpstep=4 / cplxblur=20.0 / qblur=0.5 / ip_ratio=1.40 / pb_ratio=1.30 / aq=2:0.80
Language : English
Default : Yes
Forced : No

Audio #1
ID : 2
Format : AC-3
Format/Info : Audio Coding 3
Mode extension : CM (complete main)
Format settings, Endianness : Big
Codec ID : A_AC3
Duration : 1 h 37 min
Bit rate mode : Constant
Bit rate : 640 kb/s
Channel(s) : 6 channels
Channel positions : Front: L C R, Side: L R, LFE
Sampling rate : 48.0 kHz
Frame rate : 31.250 FPS (1536 spf)
Compression mode : Lossy
Stream size : 449 MiB (6%)
Title : MVO
Language : Russian
Default : Yes
Forced : No

Audio #2
ID : 3
Format : AC-3
Format/Info : Audio Coding 3
Mode extension : CM (complete main)
Format settings, Endianness : Big
Codec ID : A_AC3
Duration : 1 h 37 min
Bit rate mode : Constant
Bit rate : 640 kb/s
Channel(s) : 6 channels
Channel positions : Front: L C R, Side: L R, LFE
Sampling rate : 48.0 kHz
Frame rate : 31.250 FPS (1536 spf)
Compression mode : Lossy
Stream size : 449 MiB (6%)
Title : Eng
Language : English
Default : No
Forced : No

Text
ID : 4
Format : UTF-8
Codec ID : S_TEXT/UTF8
Codec ID/Info : UTF-8 Plain Text
Title : Eng full
Language : English
Default : No
Forced : No

Menu
00:00:00.000 : :Chapter 01
00:05:25.366 : :Chapter 02
00:11:49.667 : :Chapter 03
00:20:36.693 : :Chapter 04
00:25:02.083 : :Chapter 05
00:30:12.811 : :Chapter 06
00:36:11.252 : :Chapter 07
00:42:36.095 : :Chapter 08
00:47:37.646 : :Chapter 09
00:55:17.063 : :Chapter 10
00:59:25.436 : :Chapter 11
01:05:32.762 : :Chapter 12
01:12:04.153 : :Chapter 13
01:18:57.607 : :Chapter 14
01:22:20.602 : :Chapter 15
01:29:04.756 : :Chapter 16

pb.wtf



Скачать Первое воскресенье через торрент http://lostpic.net/images/2016/11/01/37604306edd46efc6219943bfdc5dbe1.png Скачать фильм Первое воскресенье через торрент бесплантно в хорошем качестве В ролях: Aйс Кьюб, Кэт Уильямс, Трэйси Морган, Лоретта Дивайн, Майкл Бич, Кит Дэвид, Реджина Холл, Малинда Уильямс, Чи МакБрайд, Клифтон ... 10 10 4
Info! Золотая раздача, скачанное не засчитывается.
Торрент: Зарегистрирован [2016-11-01 14:04] · скачан: 86 раз
Статус: √ проверено
Размер: 7.75 GB
Как cкачать? Как скачать Первое воскресенье через торрент | qTorrent

28-11-2019 20:33  

Отключить всю рекламу на сайте

01-11-2016 14:10 Первое воскресенье Скачать торрент  

x264 [info]: frame I:1398 Avg QP:17.44 size:274493
x264 [info]: frame P:32609 Avg QP:19.95 size: 93934
x264 [info]: frame B:106970 Avg QP:22.24 size: 36734pb.wtf



    Дорогой пользователь! Огромная просьба, поблагодарите релизера, оцените раздачу и оставьте свои комментарий, если Вы скачали Первое воскресенье через торрент бесплатно! Внесите свою лепту в развитие PiratBit!
    Комментировать посты могут только пользователи прошедшие не сложную регистрацию
    Показать сообщения:    

    Первое воскресенье через торрент
    Скачать бесплатно Первое воскресенье
    Первое воскресенье скачать торрент
    Первое воскресенье смотреть онлайн
    Cкачать фильм Первое воскресенье бесплатно
    Первое воскресенье скачать торрент в хорошем качестве
    Первое воскресенье смотреть онлайн бесплатно в хорошем качестве


    Вы не можете начинать темы
    Вы не можете отвечать на сообщения
    Вы не можете редактировать свои сообщения
    Вы не можете удалять свои сообщения
    Вы не можете голосовать в опросах
    Вы не можете прикреплять файлы к сообщениям
    Вы можете скачивать файлы