Ссылка на приватное зеркало всего за 1$. Внимание количество ограничено!!!

iTunes

iTunes

iTunes

1

iTunes

iTunes

iTunes

iTunes

iTunes

30
pack

Новость дня

ВАЖНО

!!Акция!!

Alien_RageХит недели

RePack

Resident Evil 21

ИГРА 18+

pack

RePack

jed

!!Акция!!

Alien_Rage

RePack

fifa19

RePack

Assassins Creed: Odyssey

RePack

NEED FOR SPEED™ PAYBACK

4 сезон

9 сезон

Бесстыжие 9 сезон

Все сериалы

все сериалы на PB.wtf

RePack

FAR CRY 5
  

Рэкетир 2 (Акан Сатаев) [2015, боевик, драма, криминал, WEB-DLRip 720p] pb.wtf

Рэкетир 2 через торрент pb.wtf

Размер: 2.15 GB | Добавлен: 3 года 6 мес. назад | Торрент скачан:267 раз
Скачать  

01-11-2016 14:52 Рэкетир 2 Скачать торрент  

Рэкетир 2
Год выпуска: 2015
Страна: Казахстан
Жанр: боевик, драма, криминал
Продолжительность: 01:51:52
Перевод: Не требуется
Субтитры: Нет
В ролях: Аружан Джазильбекова / Aruzhan Jazilbekova (Альбина), Асель Сагатова / Asel Sagatova (Асель), Аян Утепберген / Ayan Utepbergen (Туча), Фархад Абдраимов / Farkhad Abdraimov (Маке), Саят Исембаев / Sayat Isembayev (Саян), Жан Байжанбаев (Жан), Азамат Сатыбалды / Azamat Satibaldi (Касым), Дастен Шакиров / Dasten Shakirov (Була)
Режиссёр: Акан Сатаев
Рейтинг:
rating
Описание:
Судьба дарит главному герою второй шанс. Все считали его погибшим. С момента гибели Руслана прошло уже десять лет. Саян — преданный помощник Руслана — принял решение отойти от дел и начать жизнь с чистого листа. Когда к нему в дом пришел младший брат погибшего начальника Була, Саян насторожился. И не зря. Була хотел мести, но Саян не готов возвращаться к прошлому. Тут-то и начинается самое интересное…

Качество: WEB-DLRip 720p
Формат: MKV
Видео кодек: AVC
Аудио кодек: AC3
Видео: 1280x536 (2.40:1), 25.000 fps, AVC, 2 569 Kbps
Аудио: Аудио #1: AC3, 192 Kbps, 48.0 KHz, 2 ch [Rus]
Рекламы Нет!
скриншот  скриншот  скриншот  скриншот  скриншот  

General
Unique ID : 236274459424090313831519077764010011117 (0xB1C0CE3F11FE821DAB93C1730FDAE9ED)
Complete name : Reketir.2.2015.720p.mkv
Format : Matroska
Format version : Version 2
File size : 2.15 GiB
Duration : 1h 51mn
Overall bit rate : 2 755 Kbps
Encoded date : UTC 2016-11-01 05:52:56
Writing application : mkvmerge v6.1.0 ('Old Devil') built on Mar 4 2013 09:10:42
Writing library : libebml v1.3.0 + libmatroska v1.4.0

Video
ID : 1
Format : AVC
Format/Info : Advanced Video Codec
Format profile : High@L4.0
Format settings, CABAC : Yes
Format settings, ReFrames : 4 frames
Codec ID : V_MPEG4/ISO/AVC
Duration : 1h 51mn
Bit rate : 2 569 Kbps
Width : 1 280 pixels
Height : 536 pixels
Display aspect ratio : 2.40:1
Frame rate mode : Constant
Frame rate : 25.000 fps
Color space : YUV
Chroma subsampling : 4:2:0
Bit depth : 8 bits
Scan type : Progressive
Bits/(Pixel*Frame) : 0.150
Stream size : 1.96 GiB (91%)
Writing library : x264 core 142
Encoding settings : cabac=1 / ref=3 / deblock=1:0:0 / analyse=0x3:0x113 / me=hex / subme=7 / psy=1 / psy_rd=1.00:0.00 / mixed_ref=1 / me_range=16 / chroma_me=1 / trellis=1 / 8x8dct=1 / cqm=0 / deadzone=21,11 / fast_pskip=1 / chroma_qp_offset=-2 / threads=48 / lookahead_threads=4 / sliced_threads=0 / nr=0 / decimate=1 / interlaced=0 / bluray_compat=0 / constrained_intra=0 / bframes=6 / b_pyramid=2 / b_adapt=1 / b_bias=0 / direct=1 / weightb=1 / open_gop=0 / weightp=2 / keyint=200 / keyint_min=20 / scenecut=0 / intra_refresh=0 / rc_lookahead=40 / rc=2pass / mbtree=1 / bitrate=2569 / ratetol=1.0 / qcomp=0.60 / qpmin=0 / qpmax=69 / qpstep=4 / cplxblur=20.0 / qblur=0.5 / vbv_maxrate=3854 / vbv_bufsize=10279 / nal_hrd=none / filler=0 / ip_ratio=1.40 / aq=1:1.00
Language : English
Default : Yes
Forced : No

Audio
ID : 2
Format : AC-3
Format/Info : Audio Coding 3
Mode extension : CM (complete main)
Format settings, Endianness : Big
Codec ID : A_AC3
Duration : 1h 51mn
Bit rate mode : Constant
Bit rate : 192 Kbps
Channel(s) : 2 channels
Channel positions : Front: L R
Sampling rate : 48.0 KHz
Bit depth : 16 bits
Compression mode : Lossy
Stream size : 154 MiB (7%)
Default : Yes
Forced : No

pb.wtf



Скачать Рэкетир 2 через торрент http://i83.fastpic.ru/big/2016/1101/e5/9bad3037c8a8b15504da95d2dead72e5.jpg Скачать фильм Рэкетир 2 через торрент бесплантно в хорошем качестве Описание:Судьба дарит главному герою второй шанс. Все считали его погибшим. С момента гибели Руслана прошло уже десять лет. Саян — ... 7.9 10 8
Торрент: Зарегистрирован [2016-11-01 14:52] · скачан: 267 раз
Статус: T временная
Размер: 2.15 GB
Как cкачать? Как скачать Рэкетир 2 через торрент | qTorrent

% Раздел Тема Автор DL S | L
T Наши новые фильмы 2015 [ 747 MB ] Рэкетир 2 [2015 WEB-DLRip] [Оригинал] killermax2013 Скачать
1 | 0
T Наши новые фильмы 2015 [ 1.37 GB ] Рэкетир 2 [2015 WEBRip] Exelero Скачать
1 | 0


Последний раз редактировалось: sanekbest1 (2016-11-01 15:35), всего редактировалось 2 раз(а)

28-11-2019 20:33  

Отключить всю рекламу на сайте

01-11-2016 15:20 Рэкетир 2 Скачать торрент  

sanekbest1,

Цитата:

Качество WEB-DL 720p

WEB-DLRip 720p
Просьба ко всем заливающим и проверяющим.
Исключить при оформлении данный бб код.
Код:

http://prntscr.com/c6wz9g
Чаще его используют в разделе кино для отчета МИ
http://prntscr.com/c6wwr5
Его наличие или отсутствие никак не влияет на информацию, а вот на сам сайт имеет. Когда его много, не есть хорошо и страницы порой дольше грузит.pb.wtf



01-11-2016 19:55 Рэкетир 2 Скачать торрент  

КазаКстан!? о_О... Однако...pb.wtf



02-11-2016 03:04 Рэкетир 2 Скачать торрент  

Первый фильм очень ничего. Есть конечно не стыковки, нов общем твердая 4+. А вторая часть как то не очень. Несуразностей много. 3 на мой вкус. Раздающему спасибо.pb.wtf



08-02-2017 22:38 Рэкетир 2 Скачать торрент  

ждал... спсpb.wtf



03-09-2017 19:44 Рэкетир 2 Скачать торрент  

2 /10 балоов!!! никакой фильм !!! 1 часть лучше! лучше бы не делали 2 часть ТАКАЯ муть!!! много сосатни про мелодрамическую жизнь!! чушьpb.wtf



    Дорогой пользователь! Огромная просьба, поблагодарите релизера, оцените раздачу и оставьте свои комментарий, если Вы скачали Рэкетир 2 через торрент бесплатно! Внесите свою лепту в развитие PiratBit!
    Комментировать посты могут только пользователи прошедшие не сложную регистрацию
    Показать сообщения:    

    Рэкетир 2 через торрент
    Скачать бесплатно Рэкетир 2
    Рэкетир 2 скачать торрент
    Рэкетир 2 смотреть онлайн
    Cкачать фильм Рэкетир 2 бесплатно
    Рэкетир 2 скачать торрент в хорошем качестве
    Рэкетир 2 смотреть онлайн бесплатно в хорошем качестве


    Вы не можете начинать темы
    Вы не можете отвечать на сообщения
    Вы не можете редактировать свои сообщения
    Вы не можете удалять свои сообщения
    Вы не можете голосовать в опросах
    Вы не можете прикреплять файлы к сообщениям
    Вы можете скачивать файлы