Ссылка на приватное зеркало нашего сайта всего за 1$. Внимание количество ограничено!!!

2 сезон

iTunes

1 сезон

1

iTunes

iTunes

iTunes

1 сезон

RePack

30

ИГРА 18+

pack

ВАЖНО

!!Акция!!

Alien_RageХит недели

RePack

MK11
pack

Забери бонус

RePack

jed

!!Акция!!

Alien_Rage

RePack

fifa19

RePack

Assassins Creed: Odyssey

RePack

NEED FOR SPEED™ PAYBACK

4 сезон

9 сезон

Бесстыжие 9 сезон

Все сериалы

все сериалы на PB.wtf

RePack

FAR CRY 5
  

Море любви / Sea of Love (Харольд Беккер) [1989, триллер, драма, мелодрама, криминал, BDRip 1080p by msltel] 2 x MVO, DVO, 5 x AVO pb.wtf

Море любви через торрент pb.wtf

Размер: 20.43 GB | Добавлен: 3 года 11 мес. назад | Торрент скачан:21 раз
Скачать  

02-11-2016 05:30 Море любви Скачать торрент  

Название: Море любви
Оригинальное название: Sea of Love
Год выпуска: 1989
Страна: США
Жанр: триллер, драма, мелодрама, криминал
Продолжительность: 01:52:47
Перевод: профессиональный многоголосый, профессиональный двухголосый, авторский

Режиссёр: Харольд Беккер

В ролях: Аль Пачино, Эллен Баркин, Джон Гудмен, Майкл Рукер, Уильям Хикки, Ричард Дженкинс, Джон Спенсер, Кристин Эстабрук, Сэмюэл Л. Джексон, Марк Фелан, Майкл О`Нилл

Описание: В Нью-Йорке орудует серийный убийца. Его жертвы — мужчины средних лет, любители интимных знакомств по объявлениям в газете. Но, к несчастью, свидания заканчиваются для романтиков плачевно: их обнаженные трупы находят с пулей в голове, в одной и той же позе. Отыскать убийцу поручено опытным детективам Фрэнку Кэллеру и его напарнику Шерману. Полицейским приходит в голову блестящий план: они решают разместить в газете собственное объявление и, тем самым, поймать убийцу «на живца»...



Качество: BDRip 1080p Сравнение с исходником
Формат: MKV
Видео: MPEG-4 AVC, 15.7 Mбит/с, 1916х1040, 23,976 кадра/с
Аудио 1: русский, DTS, 1509 kbps, 6 ch, 48 kHz [профессиональный многоголосый]
Аудио 2: русский, AC3, 192 kbps, 2 ch, 48 kHz [профессиональный многоголосый, 1 канал]
Аудио 3: русский, DTS, 768 kbps, 6 ch, 48 kHz [профессиональный двухголосый, BD CEE]
Аудио 4: русский, DTS, 1509 kbps, 6 ch, 48 kHz [авторский, Андрей Гаврилов]
Аудио 5: русский, DTS, 1509 kbps, 6 ch, 48 kHz [авторский, Василий Горчаков]
Аудио 6: русский, DTS, 1509 kbps, 6 ch, 48 kHz [авторский, Юрий Живов]
Аудио 7: русский, DTS, 1509 kbps, 6 ch, 48 kHz [авторский, Григорий Либергал]
Аудио 8: русский, AC3, 192 kbps, 2 ch, 48 kHz [авторский, Алексей Яковлев]
Аудио 9: английский, DTS, 1509 kbps, 6 ch, 48 kHz [оригинал]
Субтитры 1: русские
Субтитры 2: английские (для слабослышащих)
Имеются неименованные главы/чаптеры.
Общее
Уникальный идентификатор : 174863082671549359385813356344259785673 (0x838D679AF9EAEB09A0B8E5CFF42E33C9)
Полное имя : D:\Video\Море любви.1989.BDRip.1080p by msltel.mkv
Формат : Matroska
Версия формата : Version 4 / Version 2
Размер файла : 20,4 Гбайт
Продолжительность : 1 ч. 52 м.
Общий поток : 25,9 Мбит/сек
Название фильма : Rip by msltel
Дата кодирования : UTC 2016-11-01 15:53:08
Программа кодирования : mkvmerge v8.2.0 ('World of Adventure') 64bit
Библиотека кодирования : libebml v1.3.1 + libmatroska v1.4.2

Видео
Идентификатор : 1
Формат : AVC
Формат/Информация : Advanced Video Codec
Профиль формата : High@L4.1
Параметр CABAC формата : Да
Параметр ReFrames формата : 4 кадра
Идентификатор кодека : V_MPEG4/ISO/AVC
Продолжительность : 1 ч. 52 м.
Битрейт : 15,7 Мбит/сек
Ширина : 1916 пикселей
Высота : 1040 пикселей
Соотношение сторон : 1,85:1
Режим частоты кадров : Постоянный
Частота кадров : 23,976 (24000/1001) кадра/сек
Цветовое пространство : YUV
Субдискретизация насыщенности : 4:2:0
Битовая глубина : 8 бит
Тип развёртки : Прогрессивная
Бит/(Пиксели*Кадры) : 0.329
Размер потока : 12,4 Гбайт (61%)
Заголовок : Rip by msltel
Библиотека кодирования : x264 core 146 r2538 121396c
Настройки программы : cabac=1 / ref=4 / deblock=1:-3:-3 / analyse=0x3:0x113 / me=umh / subme=10 / psy=1 / psy_rd=1.00:0.15 / mixed_ref=1 / me_range=32 / chroma_me=1 / trellis=2 / 8x8dct=1 / cqm=0 / deadzone=21,11 / fast_pskip=0 / chroma_qp_offset=-3 / threads=6 / lookahead_threads=1 / sliced_threads=0 / nr=0 / decimate=1 / interlaced=0 / bluray_compat=0 / constrained_intra=0 / bframes=13 / b_pyramid=2 / b_adapt=2 / b_bias=0 / direct=1 / weightb=1 / open_gop=0 / weightp=2 / keyint=230 / keyint_min=23 / scenecut=40 / intra_refresh=0 / rc_lookahead=40 / rc=crf / mbtree=0 / crf=17.2 / qcomp=0.60 / qpmin=0 / qpmax=69 / qpstep=4 / vbv_maxrate=40000 / vbv_bufsize=50000 / crf_max=0.0 / nal_hrd=none / filler=0 / ip_ratio=1.40 / pb_ratio=1.30 / aq=1:1.00
Язык : English
Default : Да
Forced : Нет

Аудио #1
Идентификатор : 2
Формат : DTS
Формат/Информация : Digital Theater Systems
Режим : 16
Параметр Endianness формата : Big
Идентификатор кодека : A_DTS
Продолжительность : 1 ч. 52 м.
Вид битрейта : Постоянный
Битрейт : 1509 Кбит/сек
Каналы : 6 каналов
Расположение каналов : Front: L C R, Side: L R, LFE
Частота : 48,0 КГц
Частота кадров : 93,750 кадра/сек (512 spf)
Битовая глубина : 24 бит
Метод сжатия : С потерями
Размер потока : 1,19 Гбайт (6%)
Заголовок : MVO
Язык : Russian
Default : Да
Forced : Нет

Аудио #2
Идентификатор : 3
Формат : AC-3
Формат/Информация : Audio Coding 3
Расширение режима : CM (complete main)
Параметр Endianness формата : Big
Идентификатор кодека : A_AC3
Продолжительность : 1 ч. 52 м.
Вид битрейта : Постоянный
Битрейт : 192 Кбит/сек
Каналы : 2 канала
Расположение каналов : Front: L R
Частота : 48,0 КГц
Частота кадров : 31,250 кадров/сек (1536 spf)
Метод сжатия : С потерями
Размер потока : 155 Мбайт (1%)
Заголовок : MVO (1 канал)
Язык : Russian
Default : Нет
Forced : Нет

Аудио #3
Идентификатор : 4
Формат : DTS
Формат/Информация : Digital Theater Systems
Режим : 16
Параметр Endianness формата : Big
Идентификатор кодека : A_DTS
Продолжительность : 1 ч. 52 м.
Вид битрейта : Постоянный
Битрейт : 768 Кбит/сек
Каналы : 6 каналов
Расположение каналов : Front: L C R, Side: L R, LFE
Частота : 48,0 КГц
Частота кадров : 93,750 кадра/сек (512 spf)
Битовая глубина : 24 бит
Метод сжатия : С потерями
Размер потока : 620 Мбайт (3%)
Заголовок : DVO (BD CEE)
Язык : Russian
Default : Нет
Forced : Нет

Аудио #4
Идентификатор : 5
Формат : DTS
Формат/Информация : Digital Theater Systems
Режим : 16
Параметр Endianness формата : Big
Идентификатор кодека : A_DTS
Продолжительность : 1 ч. 52 м.
Вид битрейта : Постоянный
Битрейт : 1509 Кбит/сек
Каналы : 6 каналов
Расположение каналов : Front: L C R, Side: L R, LFE
Частота : 48,0 КГц
Частота кадров : 93,750 кадра/сек (512 spf)
Битовая глубина : 24 бит
Метод сжатия : С потерями
Размер потока : 1,19 Гбайт (6%)
Заголовок : AVO (Андрей Гаврилов)
Язык : Russian
Default : Нет
Forced : Нет

Аудио #5
Идентификатор : 6
Формат : DTS
Формат/Информация : Digital Theater Systems
Режим : 16
Параметр Endianness формата : Big
Идентификатор кодека : A_DTS
Продолжительность : 1 ч. 52 м.
Вид битрейта : Постоянный
Битрейт : 1509 Кбит/сек
Каналы : 6 каналов
Расположение каналов : Front: L C R, Side: L R, LFE
Частота : 48,0 КГц
Частота кадров : 93,750 кадра/сек (512 spf)
Битовая глубина : 24 бит
Метод сжатия : С потерями
Размер потока : 1,19 Гбайт (6%)
Заголовок : AVO (Василий Горчаков)
Язык : Russian
Default : Нет
Forced : Нет

Аудио #6
Идентификатор : 7
Формат : DTS
Формат/Информация : Digital Theater Systems
Режим : 16
Параметр Endianness формата : Big
Идентификатор кодека : A_DTS
Продолжительность : 1 ч. 52 м.
Вид битрейта : Постоянный
Битрейт : 1509 Кбит/сек
Каналы : 6 каналов
Расположение каналов : Front: L C R, Side: L R, LFE
Частота : 48,0 КГц
Частота кадров : 93,750 кадра/сек (512 spf)
Битовая глубина : 24 бит
Метод сжатия : С потерями
Размер потока : 1,19 Гбайт (6%)
Заголовок : AVO (Юрий Живов)
Язык : Russian
Default : Нет
Forced : Нет

Аудио #7
Идентификатор : 8
Формат : DTS
Формат/Информация : Digital Theater Systems
Режим : 16
Параметр Endianness формата : Big
Идентификатор кодека : A_DTS
Продолжительность : 1 ч. 52 м.
Вид битрейта : Постоянный
Битрейт : 1509 Кбит/сек
Каналы : 6 каналов
Расположение каналов : Front: L C R, Side: L R, LFE
Частота : 48,0 КГц
Частота кадров : 93,750 кадра/сек (512 spf)
Битовая глубина : 24 бит
Метод сжатия : С потерями
Размер потока : 1,19 Гбайт (6%)
Заголовок : AVO (Григорий Либергал)
Язык : Russian
Default : Нет
Forced : Нет

Аудио #8
Идентификатор : 9
Формат : AC-3
Формат/Информация : Audio Coding 3
Расширение режима : CM (complete main)
Параметр Endianness формата : Big
Идентификатор кодека : A_AC3
Продолжительность : 1 ч. 52 м.
Вид битрейта : Постоянный
Битрейт : 192 Кбит/сек
Каналы : 2 канала
Расположение каналов : Front: L R
Частота : 48,0 КГц
Частота кадров : 31,250 кадров/сек (1536 spf)
Метод сжатия : С потерями
Размер потока : 155 Мбайт (1%)
Заголовок : AVO (Алексей Яковлев)
Язык : Russian
Default : Нет
Forced : Нет

Аудио #9
Идентификатор : 10
Формат : DTS
Формат/Информация : Digital Theater Systems
Режим : 16
Параметр Endianness формата : Big
Идентификатор кодека : A_DTS
Продолжительность : 1 ч. 52 м.
Вид битрейта : Постоянный
Битрейт : 1509 Кбит/сек
Каналы : 6 каналов
Расположение каналов : Front: L C R, Side: L R, LFE
Частота : 48,0 КГц
Частота кадров : 93,750 кадра/сек (512 spf)
Битовая глубина : 24 бит
Метод сжатия : С потерями
Размер потока : 1,19 Гбайт (6%)
Заголовок : original
Язык : English
Default : Нет
Forced : Нет

Текст #1
Идентификатор : 11
Формат : UTF-8
Идентификатор кодека : S_TEXT/UTF8
Идентификатор кодека/Информация : UTF-8 Plain Text
Продолжительность : 1 ч. 49 м.
Битрейт : 83 бит/сек
Count of elements : 1687
Размер потока : 66,5 Кбайт (0%)
Заголовок : русские
Язык : Russian
Default : Нет
Forced : Нет

Текст #2
Идентификатор : 12
Формат : UTF-8
Идентификатор кодека : S_TEXT/UTF8
Идентификатор кодека/Информация : UTF-8 Plain Text
Продолжительность : 1 ч. 46 м.
Битрейт : 50 бит/сек
Count of elements : 1648
Размер потока : 39,6 Кбайт (0%)
Заголовок : английские (для слабослышащих)
Язык : English
Default : Нет
Forced : Нет

Меню
00:00:00.000 : en:Chapter 01
00:03:33.338 : en:Chapter 02
00:10:44.769 : en:Chapter 03
00:18:16.303 : en:Chapter 04
00:26:27.460 : en:Chapter 05
00:33:52.572 : en:Chapter 06
00:38:40.192 : en:Chapter 07
00:45:03.951 : en:Chapter 08
00:57:33.908 : en:Chapter 09
01:03:59.836 : en:Chapter 10
01:10:37.858 : en:Chapter 11
01:18:21.947 : en:Chapter 12
01:26:39.694 : en:Chapter 13
01:31:31.569 : en:Chapter 14
01:38:29.820 : en:Chapter 15
01:42:48.453 : en:Chapter 16

МОИ РЕЛИЗЫ
ВКОНТАКТЕ
pb.wtf



Скачать Море любви через торрент http://s018.radikal.ru/i528/1611/3b/1a845aed6836.jpg Скачать фильм Море любви через торрент бесплантно в хорошем качестве Описание: В Нью-Йорке орудует серийный убийца. Его жертвы — мужчины средних лет, любители интимных знакомств по объявлениям в газете. Но, к ... 10 10 1
Торрент: Зарегистрирован [2016-11-02 05:30] · скачан: 21 раз
Статус: √ проверено
Размер: 20.43 GB
Как cкачать? Как скачать Море любви через торрент | qTorrent

% Раздел Тема Автор DL S | L
Фильмы [HD 720p, 1080p] (Хороший звук DUB, MVO) [ 7.41 GB ] Море любви / Sea of Love [1989 BDRip 720p by msltel] 2 x MVO DVO 5 x AVO msltel Скачать
1 | 0

28-11-2019 20:33  

Отключить всю рекламу на сайте

    Дорогой пользователь! Огромная просьба, поблагодарите релизера, оцените раздачу и оставьте свои комментарий, если Вы скачали Море любви через торрент бесплатно! Внесите свою лепту в развитие PiratBit!
    Комментировать посты могут только пользователи прошедшие не сложную регистрацию
    Показать сообщения:    

    Море любви через торрент
    Скачать бесплатно Море любви
    Море любви скачать торрент
    Море любви смотреть онлайн
    Cкачать фильм Море любви бесплатно
    Море любви скачать торрент в хорошем качестве
    Море любви смотреть онлайн бесплатно в хорошем качестве


    Вы не можете начинать темы
    Вы не можете отвечать на сообщения
    Вы не можете редактировать свои сообщения
    Вы не можете удалять свои сообщения
    Вы не можете голосовать в опросах
    Вы не можете прикреплять файлы к сообщениям
    Вы можете скачивать файлы