Ссылка на приватное зеркало нашего сайта всего за 1$. Внимание количество ограничено!!!

2 сезон

iTunes

1 сезон

1

iTunes

iTunes

iTunes

1 сезон

RePack

30

ИГРА 18+

pack

ВАЖНО

!!Акция!!

Alien_RageХит недели

RePack

MK11
pack

Забери бонус

RePack

jed

!!Акция!!

Alien_Rage

RePack

fifa19

RePack

Assassins Creed: Odyssey

RePack

NEED FOR SPEED™ PAYBACK

4 сезон

9 сезон

Бесстыжие 9 сезон

Все сериалы

все сериалы на PB.wtf

RePack

FAR CRY 5
  

Связь / Bound (Лилли Вачовски, Лана Вачовски) [1996, триллер, драма, мелодрама, криминал, BDRip 1080p by msltel] MVO, AVO pb.wtf

Связь через торрент pb.wtf

Размер: 14.89 GB | Добавлен: 3 года 11 мес. назад | Торрент скачан:36 раз
Скачать  

02-11-2016 09:21 Связь Скачать торрент  

Название: Связь
Оригинальное название: Bound
Год выпуска: 1996
Страна: США
Жанр: триллер, драма, мелодрама, криминал
Продолжительность: 01:48:34
Перевод: профессиональный многоголосый, авторский

Режиссёр: Лилли Вачовски, Лана Вачовски

В ролях: Дженнифер Тилли, Джина Гершон, Джо Пантолиано, Джон П. Райан, Кристофер Мелони, Ричард С. Сарафьян, Мэри Мара, Сьюзи Брайт, Маргарет Смит

Описание: Один из членов мафии присвоил два миллиона долларов, был разоблачён, подвергнут пыткам и убит. Всё это происходило на глазах Вайолет, любовницы гангстера Сизара, у них дома. Она вообще многое знала, поскольку Сизар никогда ничего от неё не скрывал. А в соседней квартире тем временем обосновалась только что вышедшая из тюрьмы суперсексуальная лесбиянка Корки. И родилась страстная связь двух женщин, а вместе с ней и идея присвоить те самые миллионы, которые хранятся у Сизара для босса мафии Джино Марзоне. Но не всё пошло так, как было задумано...



Качество: BDRip 1080p Сравнение с исходником
Формат: MKV
Видео: MPEG-4 AVC, 15.1 Mбит/с, 1920x1034, 23,976 кадра/с
Аудио 1: русский, DTS, 1509 kbps, 6 ch, 48 kHz [профессиональный многоголосый, лицензия]
Аудио 2: русский, DTS, 1509 kbps, 6 ch, 48 kHz [авторский, Пётр Карцев]
Аудио 3: английский, DTS, 1509 kbps, 6 ch, 48 kHz [оригинал]
Субтитры 1: русские (вариант 1)
Субтитры 2: русские (вариант 2)
Имеются неименованные главы/чаптеры.
Общее
Уникальный идентификатор : 174275548445150092416944652383978839227 (0x831C3FEE78221A6CAEC29A8D3948DCBB)
Полное имя : D:\Video\Связь.1996.BDRip.1080p by msltel.mkv
Формат : Matroska
Версия формата : Version 4 / Version 2
Размер файла : 14,9 Гбайт
Продолжительность : 1 ч. 48 м.
Общий поток : 19,6 Мбит/сек
Название фильма : Rip by msltel
Дата кодирования : UTC 2016-11-02 08:07:21
Программа кодирования : mkvmerge v8.2.0 ('World of Adventure') 64bit
Библиотека кодирования : libebml v1.3.1 + libmatroska v1.4.2

Видео
Идентификатор : 1
Формат : AVC
Формат/Информация : Advanced Video Codec
Профиль формата : High@L4.1
Параметр CABAC формата : Да
Параметр ReFrames формата : 4 кадра
Идентификатор кодека : V_MPEG4/ISO/AVC
Продолжительность : 1 ч. 48 м.
Битрейт : 15,1 Мбит/сек
Ширина : 1920 пикселей
Высота : 1034 пикселя
Соотношение сторон : 1,85:1
Режим частоты кадров : Постоянный
Частота кадров : 23,976 (24000/1001) кадра/сек
Цветовое пространство : YUV
Субдискретизация насыщенности : 4:2:0
Битовая глубина : 8 бит
Тип развёртки : Прогрессивная
Бит/(Пиксели*Кадры) : 0.317
Размер потока : 11,4 Гбайт (77%)
Заголовок : Rip by msltel
Библиотека кодирования : x264 core 146 r2538 121396c
Настройки программы : cabac=1 / ref=4 / deblock=1:-3:-3 / analyse=0x3:0x113 / me=umh / subme=10 / psy=1 / psy_rd=1.00:0.15 / mixed_ref=1 / me_range=32 / chroma_me=1 / trellis=2 / 8x8dct=1 / cqm=0 / deadzone=21,11 / fast_pskip=0 / chroma_qp_offset=-3 / threads=6 / lookahead_threads=1 / sliced_threads=0 / nr=0 / decimate=1 / interlaced=0 / bluray_compat=0 / constrained_intra=0 / bframes=8 / b_pyramid=2 / b_adapt=2 / b_bias=0 / direct=1 / weightb=1 / open_gop=0 / weightp=2 / keyint=230 / keyint_min=23 / scenecut=40 / intra_refresh=0 / rc_lookahead=40 / rc=crf / mbtree=0 / crf=18.0 / qcomp=0.60 / qpmin=0 / qpmax=69 / qpstep=4 / vbv_maxrate=40000 / vbv_bufsize=50000 / crf_max=0.0 / nal_hrd=none / filler=0 / ip_ratio=1.40 / pb_ratio=1.30 / aq=1:1.00
Язык : English
Default : Да
Forced : Нет

Аудио #1
Идентификатор : 2
Формат : DTS
Формат/Информация : Digital Theater Systems
Режим : 16
Параметр Endianness формата : Big
Идентификатор кодека : A_DTS
Продолжительность : 1 ч. 48 м.
Вид битрейта : Постоянный
Битрейт : 1509 Кбит/сек
Каналы : 6 каналов
Расположение каналов : Front: L C R, Side: L R, LFE
Частота : 48,0 КГц
Частота кадров : 93,750 кадра/сек (512 spf)
Битовая глубина : 16 бит
Метод сжатия : С потерями
Размер потока : 1,14 Гбайт (8%)
Заголовок : MVO (лицезия)
Язык : Russian
Default : Да
Forced : Нет

Аудио #2
Идентификатор : 3
Формат : DTS
Формат/Информация : Digital Theater Systems
Режим : 16
Параметр Endianness формата : Big
Идентификатор кодека : A_DTS
Продолжительность : 1 ч. 48 м.
Вид битрейта : Постоянный
Битрейт : 1509 Кбит/сек
Каналы : 6 каналов
Расположение каналов : Front: L C R, Side: L R, LFE
Частота : 48,0 КГц
Частота кадров : 93,750 кадра/сек (512 spf)
Битовая глубина : 16 бит
Метод сжатия : С потерями
Размер потока : 1,14 Гбайт (8%)
Заголовок : AVO (Пётр Карцев)
Язык : Russian
Default : Нет
Forced : Нет

Аудио #3
Идентификатор : 4
Формат : DTS
Формат/Информация : Digital Theater Systems
Режим : 16
Параметр Endianness формата : Big
Идентификатор кодека : A_DTS
Продолжительность : 1 ч. 48 м.
Вид битрейта : Постоянный
Битрейт : 1509 Кбит/сек
Каналы : 6 каналов
Расположение каналов : Front: L C R, Side: L R, LFE
Частота : 48,0 КГц
Частота кадров : 93,750 кадра/сек (512 spf)
Битовая глубина : 16 бит
Метод сжатия : С потерями
Размер потока : 1,14 Гбайт (8%)
Заголовок : original
Язык : English
Default : Нет
Forced : Нет

Текст #1
Идентификатор : 5
Формат : UTF-8
Идентификатор кодека : S_TEXT/UTF8
Идентификатор кодека/Информация : UTF-8 Plain Text
Продолжительность : 1 ч. 44 м.
Битрейт : 67 бит/сек
Count of elements : 1076
Размер потока : 52,1 Кбайт (0%)
Заголовок : рууские (вариант 1)
Язык : Russian
Default : Нет
Forced : Нет

Текст #2
Идентификатор : 6
Формат : UTF-8
Идентификатор кодека : S_TEXT/UTF8
Идентификатор кодека/Информация : UTF-8 Plain Text
Продолжительность : 1 ч. 42 м.
Битрейт : 83 бит/сек
Count of elements : 1216
Размер потока : 62,5 Кбайт (0%)
Заголовок : рууские (вариант 2)
Язык : Russian
Default : Нет
Forced : Нет

Меню
00:00:00.000 : :Chapter 01
00:00:57.432 : :Chapter 02
00:02:00.787 : :Chapter 03
00:06:17.335 : :Chapter 04
00:09:13.386 : :Chapter 05
00:15:32.473 : :Chapter 06
00:20:55.921 : :Chapter 07
00:22:47.324 : :Chapter 08
00:26:02.561 : :Chapter 09
00:31:16.374 : :Chapter 10
00:35:59.824 : :Chapter 11
00:41:48.130 : :Chapter 12
00:47:53.870 : :Chapter 13
00:54:25.845 : :Chapter 14
01:01:41.072 : :Chapter 15
01:06:55.052 : :Chapter 16
01:12:54.495 : :Chapter 17
01:18:03.929 : :Chapter 18
01:22:25.857 : :Chapter 19
01:28:27.468 : :Chapter 20
01:36:08.053 : :Chapter 21
01:41:49.937 : :Chapter 22
01:44:07.241 : :Chapter 23
01:48:34.466 : :Chapter 24

МОИ РЕЛИЗЫ
ВКОНТАКТЕ
pb.wtf



Скачать Связь через торрент http://s018.radikal.ru/i509/1611/2f/47cfde85c70b.jpg Скачать фильм Связь через торрент бесплантно в хорошем качестве Описание: Один из членов мафии присвоил два миллиона долларов, был разоблачён, подвергнут пыткам и убит. Всё это происходило на глазах ... 10 10 1
Info! Золотая раздача, скачанное не засчитывается.
Торрент: Зарегистрирован [2016-11-02 09:21] · скачан: 36 раз
Статус: √ проверено
Размер: 14.89 GB
Как cкачать? Как скачать Связь через торрент | qTorrent

% Раздел Тема Автор DL S | L
Фильмы [HD 720p, 1080p] (Хороший звук DUB, MVO) [ 5.64 GB ] Связь / Bound [1996 BDRip 720p by msltel] MVO AVO msltel Скачать
1 | 0


Последний раз редактировалось: msltel (2016-11-04 12:27), всего редактировалось 2 раз(а)

28-11-2019 20:33  

Отключить всю рекламу на сайте

02-11-2016 10:12 Связь Скачать торрент  

Ошибочка,тогда они ещё были братья
pb.wtf



    Дорогой пользователь! Огромная просьба, поблагодарите релизера, оцените раздачу и оставьте свои комментарий, если Вы скачали Связь через торрент бесплатно! Внесите свою лепту в развитие PiratBit!
    Комментировать посты могут только пользователи прошедшие не сложную регистрацию
    Показать сообщения:    

    Связь через торрент
    Скачать бесплатно Связь
    Связь скачать торрент
    Связь смотреть онлайн
    Cкачать фильм Связь бесплатно
    Связь скачать торрент в хорошем качестве
    Связь смотреть онлайн бесплатно в хорошем качестве


    Вы не можете начинать темы
    Вы не можете отвечать на сообщения
    Вы не можете редактировать свои сообщения
    Вы не можете удалять свои сообщения
    Вы не можете голосовать в опросах
    Вы не можете прикреплять файлы к сообщениям
    Вы можете скачивать файлы