2 сезон

iTunes

MVO

1

2 сезон

iTunes

iTunes

1 сезон

RePack

30

Новинка

ВАЖНО

ИГРА 18+

pack

RePack

MK11
pack

Легкие деньги

RePack

jed

RePack

fifa19

RePack

RDR2

RePack

NEED FOR SPEED™ PAYBACK

4 сезон

9 сезон

Бесстыжие 9 сезон

Все сериалы

все сериалы на PB.wtf

RePack

FAR CRY 5

Anonymous, доброе утро, мы не успеваем собрать деньги на оплату серверов за декабрь и январь, помогите нам пожалуйста в это трудное время. В качестве благодарности мы отключим Вам всю рекламу на сайте (укажите свой ник в строку Ваше имя)!

×
  
Magnet ссылка

600 миль / 600 Millas (Гэбриел Рипштейн) [2015, триллер, драма, HDRip, любительский многоголосый [Paradox @ OmskBird records] pb.wtf

600 миль через торрент pb.wtf

Размер: 1.37 GB | Добавлен: 4 года 2 мес. назад | Торрент скачан:209 раз
Скачать  

02-11-2016 13:50 600 миль Скачать торрент  

600 миль / 600 Millas


Год выпуска: 2015
Страна: Мексика, США
Жанр: триллер, драма

Продолжительность: 01:21:03
Перевод: любительский многоголосый [Paradox @ OmskBird records]
Режиссер: Гэбриел Рипштейн
В ролях:

Тим Рот (Hank Harris), Кристиан Феррер (Arnulfo Rubio), Моника дель Кармен (Mamá Rubio), Крэйг Хенсли (Gunstore Owner 5), Харрис Кендалл (Greta), Грег Лутс (Willy), Deirdre Moylan (Gun Shop Customer), Lisa Piikkila (Surplus store cashier), Peyton Nikole Piper (Local in courtyard), Danny Ray, Фаусто Олмос Рентерия (Comprador Armas Show), Cale Rush (Gun Store Kid / играет самого себя)
Описание:
Агент по борьбе с незаконным оборотом алкоголя, табака и оружия Хэнк Харрис преследует Арнульфо Рубио - молодого человека, который торгует оружием между США и Мексикой. После того, как Харрис допускает грубую ошибку, Рубио принимает отчаянное решение: он похищает агента и увозит его в Мексику. И пока двое явных врагов медленно сближаются, их поджидает опасность. Единственный выход из ситуации - доверять друг другу.
Мировая премьера: 6 февраля 2015

Качество: HDRip

Формат: AVI
Видео: XviD, 720x384 (1.85:1), 1956 kbps, 25 fps, 0.283 bpp
Аудио: AC3 / 2.0 / 48 kHz / 448 kbps /

Video
ID : 0
Format : MPEG-4 Visual
Format profile : Advanced Simple@L5
Format settings, BVOP : 2
Format settings, QPel : No
Format settings, GMC : No warppoints
Format settings, Matrix : Custom
Codec ID : XVID
Codec ID/Hint : XviD
Duration : 1 h 21 min
Bit rate : 1 957 kb/s
Width : 720 pixels
Height : 384 pixels
Display aspect ratio : 1.85:1
Frame rate : 25.000 FPS
Color space : YUV
Chroma subsampling : 4:2:0
Bit depth : 8 bits
Scan type : Progressive
Compression mode : Lossy
Bits/(Pixel*Frame) : 0.283
Stream size : 1.11 GiB (81%)
Writing library : XviD 1.2.1 (UTC 2008-12-04)

Audio
ID : 1
Format : AC-3
Format/Info : Audio Coding 3
Mode extension : CM (complete main)
Format settings, Endianness : Big
Codec ID : 2000
Duration : 1 h 21 min
Bit rate mode : Constant
Bit rate : 448 kb/s
Channel(s) : 2 channels
Channel positions : Front: L R
Sampling rate : 48.0 kHz
Frame rate : 31.250 FPS (1536 spf)
Compression mode : Lossy
Stream size : 260 MiB (19%)
Alignment : Split accross interleaves
Interleave, duration : 40 ms (1.00 video frame)
Interleave, preload duration : 500 ms

© Оформление by White Smoke pb.wtf



Скачать 600 миль через торрент http://i1.imageban.ru/out/2016/11/02/1fd05f82a3da8caa2d0b87dc8fbed2c9.jpg Скачать фильм 600 миль через торрент бесплантно в хорошем качестве Описание: Агент по борьбе с незаконным оборотом алкоголя, табака и оружия Хэнк Харрис преследует Арнульфо Рубио - молодого человека, ... 10 10 5
Торрент: Зарегистрирован [2016-11-02 13:50] · скачан: 209 раз
Статус: T временная
Размер: 1.37 GB
Как cкачать? Как скачать 600 миль через торрент | UTorrent

% Раздел Тема Автор DL S | L
Фильмы с авторской озвучкой [ 7.24 GB ] 600 миль / 600 Millas [2015 BDRip.720p] [Антон Карповский] DJASFUL Скачать
1 | 0
Фильмы с авторской озвучкой [ 1.36 GB ] 600 миль / 600 Millas [2015 BDRip] AVO [Антон Карповский] bober100 Скачать
1 | 0

28-11-2019 20:33  

Отключить всю рекламу на сайте

    Дорогой пользователь! Огромная просьба, поблагодарите релизера, оцените раздачу и оставьте свои комментарий, если Вы скачали 600 миль через торрент бесплатно! Внесите свою лепту в развитие PiratBit!
    Комментировать посты могут только пользователи прошедшие не сложную регистрацию
    Показать сообщения:    

    600 миль через торрент
    Скачать бесплатно 600 миль
    600 миль скачать торрент
    600 миль смотреть онлайн
    Cкачать фильм 600 миль бесплатно
    600 миль скачать торрент в хорошем качестве
    600 миль смотреть онлайн бесплатно в хорошем качестве


    Вы не можете начинать темы
    Вы не можете отвечать на сообщения
    Вы не можете редактировать свои сообщения
    Вы не можете удалять свои сообщения
    Вы не можете голосовать в опросах
    Вы не можете прикреплять файлы к сообщениям
    Вы можете скачивать файлы