новый адрес
Ссылка на приватное зеркало всего за 1$. Внимание количество ограничено!!!

iTunes

1+1

iTunes

мы

WEB-DL

1

iTunes

Чернобыль

iTunes

Ральф против интернета

Лицензия

ПШазам

Лицензия

Оно 2

Лицензия

30
pack

Вам бонус

ВАЖНО

!!Акция!!

Alien_RageХит недели

RePack

Resident Evil 21

ИГРА 18+

pack

RePack

jed

!!Акция!!

Alien_Rage

RePack

fifa19

RePack

Assassins Creed: Odyssey

RePack

NEED FOR SPEED™ PAYBACK

3 сезон

9 сезон

Бесстыжие 9 сезон

Все сериалы

все сериалы на PB.wtf

RePack

FAR CRY 5
Ребята, катастрофически не хватает 1900р. для оплаты серверов за Октябрь (всвязи с блокировками трафик упал в 3 раза), 1-2р., выручайте.
  

Баба Джун / Baba Joon (Юваль Дельшад) [2015, драма, HDRip, Любительский одноголосый [Александр Водяной] pb.wtf

Баба Джун через торрент pb.wtf

Размер: 1.38 GB | Добавлен: 3 года 1 мес. назад | Торрент скачан:90 раз
Скачать  

02-11-2016 23:31 Баба Джун Скачать торрент  

Баба Джун / Baba Joon


Год выпуска: 2015
Страна: Израиль
Жанр: драма
Продолжительность: 01:31:34
Перевод: Любительский одноголосый [Александр Водяной]
Режиссер: Юваль Дельшад
В ролях:

Навид Негабан (Itzhak), Эшер Аврахами (Moti), Дэвид Диаан (Dariush), Элиас Рафаэль (Baba), Висс Эллиот Сафави (Sarah), David Ben-Avraham (Moti's teacher)
Описание:
Ицхак работает на индюшачьей ферме, которую его отец построил своими руками после того как они эмигрировали из Ирана в Израиль. Когда его сыну Моти исполняется тринадцать, Ицхак учит его по торговле, надеясь, что мальчик с гордостью продолжит семейные традиции. Но Моти не нравится работать в сарае для индюшек; его страсть - это подбирать автомобили со свалки и возвращать их к жизни.
Мировая премьера: 9 сентября 2015

Качество: HDRip

Формат: AVI
Видео: XviD, 720x384 (1.85:1), 1556 kbps, 23.976 fps, 0.235 bpp
Аудио №1: AC3 / 2.0 / 48 kHz / 192 kbps / 16 bit
Аудио №2: AC3 / 2.0 / 48 kHz / 384 kbps / 16 bit

Video
ID : 0
Format : MPEG-4 Visual
Format profile : Advanced Real Time Simple@L4
Format settings, BVOP : 2
Format settings, QPel : No
Format settings, GMC : No warppoints
Format settings, Matrix : Default (H.263)
Muxing mode : Packed bitstream
Codec ID : XVID
Codec ID/Hint : XviD
Duration : 1 h 31 min
Bit rate : 1 557 kb/s
Width : 720 pixels
Height : 384 pixels
Display aspect ratio : 1.85:1
Frame rate : 23.976 (24000/1001) FPS
Color space : YUV
Chroma subsampling : 4:2:0
Bit depth : 8 bits
Scan type : Progressive
Compression mode : Lossy
Bits/(Pixel*Frame) : 0.235
Stream size : 1 020 MiB (72%)
Writing library : XviD 67

Audio #1
ID : 1
Format : AC-3
Format/Info : Audio Coding 3
Mode extension : CM (complete main)
Format settings, Endianness : Big
Codec ID : 2000
Duration : 1 h 31 min
Bit rate mode : Constant
Bit rate : 192 kb/s
Channel(s) : 2 channels
Channel positions : Front: L R
Sampling rate : 48.0 kHz
Frame rate : 31.250 FPS (1536 spf)
Bit depth : 16 bits
Compression mode : Lossy
Stream size : 126 MiB (9%)
Alignment : Aligned on interleaves
Interleave, duration : 32 ms (0.77 video frame)

Audio #2
ID : 2
Format : AC-3
Format/Info : Audio Coding 3
Mode extension : CM (complete main)
Format settings, Endianness : Big
Codec ID : 2000
Duration : 1 h 31 min
Bit rate mode : Constant
Bit rate : 384 kb/s
Channel(s) : 2 channels
Channel positions : Front: L R
Sampling rate : 48.0 kHz
Frame rate : 31.250 FPS (1536 spf)
Bit depth : 16 bits
Compression mode : Lossy
Stream size : 252 MiB (18%)
Alignment : Aligned on interleaves
Interleave, duration : 32 ms (0.77 video frame)

© Оформление by White Smoke pb.wtf



Скачать Баба Джун через торрент http://i2.imageban.ru/out/2016/11/03/e9ce2227c45892d687b9e1bb8b4389ce.jpg Скачать фильм Баба Джун через торрент бесплантно в хорошем качестве Описание: Ицхак работает на индюшачьей ферме, которую его отец построил своими руками после того как они эмигрировали из Ирана в Израиль. ... 7.8 10 4
Торрент: Зарегистрирован [2016-11-02 23:31] · скачан: 90 раз
Статус: T временная
Размер: 1.38 GB
Как cкачать? Как скачать Баба Джун через торрент | qTorrent

28-11-2019 20:33  

Отключить всю рекламу на сайте

03-11-2016 18:07 Баба Джун Скачать торрент  

фильм с 3 актерами .а где фото индюшек в главных ролях и бабы джунpb.wtf



06-11-2016 02:56 Баба Джун Скачать торрент  

=)pb.wtf



    Дорогой пользователь! Огромная просьба, поблагодарите релизера, оцените раздачу и оставьте свои комментарий, если Вы скачали Баба Джун через торрент бесплатно! Внесите свою лепту в развитие PiratBit!
    Комментировать посты могут только пользователи прошедшие не сложную регистрацию
    Показать сообщения:    

    Баба Джун через торрент
    Скачать бесплатно Баба Джун
    Баба Джун скачать торрент
    Баба Джун смотреть онлайн
    Cкачать фильм Баба Джун бесплатно
    Баба Джун скачать торрент в хорошем качестве
    Баба Джун смотреть онлайн бесплатно в хорошем качестве


    Вы не можете начинать темы
    Вы не можете отвечать на сообщения
    Вы не можете редактировать свои сообщения
    Вы не можете удалять свои сообщения
    Вы не можете голосовать в опросах
    Вы не можете прикреплять файлы к сообщениям
    Вы можете скачивать файлы