2 сезон

iTunes

MVO

1

2 сезон

iTunes

iTunes

1 сезон

RePack

30

Новинка

ВАЖНО

ИГРА 18+

pack

RePack

MK11
pack

Легкие деньги

RePack

jed

RePack

fifa19

RePack

RDR2

RePack

NEED FOR SPEED™ PAYBACK

4 сезон

9 сезон

Бесстыжие 9 сезон

Все сериалы

все сериалы на PB.wtf

RePack

FAR CRY 5

Anonymous, доброй ночи, мы не успеваем собрать деньги на оплату серверов за декабрь и январь, помогите нам пожалуйста в это трудное время. В качестве благодарности мы отключим Вам всю рекламу на сайте (укажите свой ник в строку Ваше имя)!

×
  
Magnet ссылка

Великая битва Александра Македонского / Alexander's Greatest Battle (Джереми Джэффс) [2009 г., Документальный, HDTV 1080i, Профессиональный (одноголосый)] pb.wtf

Великая битва Александра Македонского через торрент pb.wtf

Размер: 4.03 GB | Добавлен: 4 года 2 мес. назад | Торрент скачан:21 раз
Скачать  

03-11-2016 15:23 Великая битва Александра Македонского Скачать торрент  

Великая битва Александра Македонского / Alexander's Greatest Battle
Год выпуска: 2009
Страна: Великобритания
Жанр: Документальный
Продолжительность: 00:48:01
Перевод: Профессиональный (одноголосый) [SDI Media]
Тип релиза: Лицензия
Субтитры: Отсутствуют

Режиссер: Джереми Джэффс



В ролях: Майкл Вуд

Описание: Вместе с Майклом Вудом мы отправляемся в путешествие по Сирии и Ираку, чтобы раскрыть тайну решающей битвы Александра Македонского против Персидской державы, состоявшейся в 331 году до нашей эры. Принято считать, что место сражения расположено вблизи города Эрбиль на севере Ирака, однако точное место установлено не было. При помощи клинописной глиняной таблички из Британского музея и древнеегипетского папируса удается пролить свет на ход событий, а реконструкция военной кампании помогает проследить путь Александра Македонского через Дамаск и Алеппо к реке Евфрат в Сирии.

Качество: HDTV 1080i
Формат: TS
Видео кодек: AVC
Аудио кодек: AC3
Видео: AVC, 1920x1080, 25 fps, 10,8 Mbps
Аудио#1: Russian: AC3, 192 kb/s, 2 ch, 48 kHz
Аудио#2: English: AC3, 448 kb/s, 6 ch, 48 kHz
скриншот  скриншот  скриншот  скриншот  скриншот  

Общее
Формат : MPEG-TS
Размер файла : 4,03 Гбайт
Продолжительность : 48 м. 1 с.
Режим общего битрейта : Переменный
Общий поток : 12,0 Мбит/сек
Максимальный общий битрейт : 35,5 Мбит/сек

Видео
Идентификатор : 4113 (0x1011)
Идентификатор меню : 1 (0x1)
Формат : AVC
Формат/Информация : Advanced Video Codec
Профиль формата : Main@L4
Параметр CABAC формата : Да
Параметр ReFrames формата : 4 кадра
Идентификатор кодека : 27
Продолжительность : 48 м. 1 с.
Битрейт : 10,8 Мбит/сек
Ширина : 1920 пикселей
Высота : 1080 пикселей
Соотношение сторон : 16:9
Частота кадров : 25,000 кадров/сек
Цветовое пространство : YUV
Субдискретизация насыщенности : 4:2:0
Битовая глубина : 8 бит
Тип развёртки : Чересстрочная
Метод сохранения типа развёртки : Раздельные поля
Порядок развёртки : Верхнее поле первое
Бит/(Пиксели*Кадры) : 0.208
Размер потока : 3,62 Гбайт (90%)
Цветовой диапазон : Limited
Основные цвета : BT.709
Характеристики трансфера : BT.709
Коэффициенты матрицы : BT.709

Аудио #1
Идентификатор : 4352 (0x1100)
Идентификатор меню : 1 (0x1)
Формат : AC-3
Формат/Информация : Audio Coding 3
Расширение режима : CM (complete main)
Параметр Endianness формата : Big
Идентификатор кодека : 129
Продолжительность : 48 м. 1 с.
Вид битрейта : Постоянный
Битрейт : 192 Кбит/сек
Каналы : 2 канала
Расположение каналов : Front: L R
Частота : 48,0 КГц
Частота кадров : 31,250 кадров/сек (1536 spf)
Метод сжатия : С потерями
Размер потока : 66,0 Мбайт (2%)
Язык : Russian

Аудио #2
Идентификатор : 4353 (0x1101)
Идентификатор меню : 1 (0x1)
Формат : AC-3
Формат/Информация : Audio Coding 3
Расширение режима : CM (complete main)
Параметр Endianness формата : Big
Идентификатор кодека : 129
Продолжительность : 48 м. 1 с.
Вид битрейта : Постоянный
Битрейт : 448 Кбит/сек
Каналы : 6 каналов
Расположение каналов : Front: L C R, Side: L R, LFE
Частота : 48,0 КГц
Частота кадров : 31,250 кадров/сек (1536 spf)
Метод сжатия : С потерями
Размер потока : 154 Мбайт (4%)
Язык : English

pb.wtf



Скачать Великая битва Александра Македонского через торрент https://pic1.kartinco.top/images/11/d5fv7.jpg Скачать фильм Великая битва Александра Македонского через торрент бесплантно в хорошем качестве Описание: Вместе с Майклом Вудом мы отправляемся в путешествие по Сирии и Ираку, чтобы раскрыть тайну решающей битвы Александра ... 10 10 3
Торрент: Зарегистрирован [2016-11-03 15:23] · скачан: 21 раз
Статус: √ проверено
Размер: 4.03 GB
Как cкачать? Как скачать Великая битва Александра Македонского через торрент | UTorrent

28-11-2019 20:33  

Отключить всю рекламу на сайте

    Дорогой пользователь! Огромная просьба, поблагодарите релизера, оцените раздачу и оставьте свои комментарий, если Вы скачали Великая битва Александра Македонского через торрент бесплатно! Внесите свою лепту в развитие PiratBit!
    Комментировать посты могут только пользователи прошедшие не сложную регистрацию
    Показать сообщения:    

    Великая битва Александра Македонского через торрент
    Скачать бесплатно Великая битва Александра Македонского
    Великая битва Александра Македонского скачать торрент
    Великая битва Александра Македонского смотреть онлайн
    Cкачать фильм Великая битва Александра Македонского бесплатно
    Великая битва Александра Македонского скачать торрент в хорошем качестве
    Великая битва Александра Македонского смотреть онлайн бесплатно в хорошем качестве


    Вы не можете начинать темы
    Вы не можете отвечать на сообщения
    Вы не можете редактировать свои сообщения
    Вы не можете удалять свои сообщения
    Вы не можете голосовать в опросах
    Вы не можете прикреплять файлы к сообщениям
    Вы можете скачивать файлы