Ссылка на приватное зеркало нашего сайта всего за 1$. Внимание количество ограничено!!!

2 сезон

iTunes

1 сезон

1

iTunes

iTunes

iTunes

1 сезон

RePack

30

ИГРА 18+

pack

ВАЖНО

!!Акция!!

Alien_RageХит недели

RePack

MK11
pack

Забери бонус

RePack

jed

!!Акция!!

Alien_Rage

RePack

fifa19

RePack

Assassins Creed: Odyssey

RePack

NEED FOR SPEED™ PAYBACK

4 сезон

9 сезон

Бесстыжие 9 сезон

Все сериалы

все сериалы на PB.wtf

RePack

FAR CRY 5
  

Не пойман - не вор / Ni vu, ni connu (Ив Робер) [1958, комедия, BDRip 1080p by msltel] DUB, MVO pb.wtf

Не пойман - не вор через торрент pb.wtf

Размер: 12.05 GB | Добавлен: 3 года 11 мес. назад | Торрент скачан:27 раз
Скачать  

04-11-2016 06:17 Не пойман - не вор Скачать торрент  

Название: Не пойман - не вор
Оригинальное название: Ni vu, ni connu
Год выпуска: 1958
Страна: Франция
Жанр: комедия
Продолжительность: 01:29:39
Перевод: дублированный, профессиональный многоголосый

Режиссёр: Ив Робер

В ролях: Луи де Фюнес, Ноэль Адам, Фредерик Дюваллес, Клод Риш, Ролан Армонтель, Мадлен Барбюле, Пьер Стефен, Сабина Андре, Жан Белланже, Марк Бланшар, Жак Кутюрье, Люсьен Юбер

Описание: Монпаньяр — самый спокойный город Франции. Единственный возмутитель спокойствия — рыночный торговец Блеро. Он имеет разрешение на продажу грибов на местном рынке, но, поскольку спрос на рыбу высок, Блеро в свободное время нелегально рыбачит и тайком продает рыбу без разрешения. Жандармы пытаются поймать браконьера, но безуспешно. Когда на одного из жандармов совершается нападение, подозрение падает на Блеро, и его сажают в тюрьму на месяц. Внезапно объявляется настоящий преступник, и Блеро надеется выйти на свободу. Но обстоятельства складываются иначе...



Качество: BDRip 1080p Сравнение с исходником
Формат: MKV
Видео: MPEG-4 AVC, 17.9 Mбит/с, 1792x1080, 24 кадра/с
Аудио 1: русский, AC3, 192 kbps, 2 ch, 48 kHz [дублированный, киностудия им. М.Горького]
Аудио 2: русский, AC3, 384 kbps, 2 ch, 48 kHz [профессиональный многоголосый]
Аудио 3: французский, DTS, 768 kbps, 2 ch, 48 kHz [оригинал]
Имеются неименованные главы/чаптеры.
Общее
Уникальный идентификатор : 180258064373745642444372943227236864110 (0x879C70BD5D3A03F5A391E9DDD487506E)
Полное имя : D:\Video\Не пойман - не вор.1958.BDRip.1080p by msltel.mkv
Формат : Matroska
Версия формата : Version 4 / Version 2
Размер файла : 12,0 Гбайт
Продолжительность : 1 ч. 29 м.
Общий поток : 19,2 Мбит/сек
Название фильма : Rip by msltel
Дата кодирования : UTC 2016-11-04 02:21:38
Программа кодирования : mkvmerge v8.2.0 ('World of Adventure') 64bit
Библиотека кодирования : libebml v1.3.1 + libmatroska v1.4.2

Видео
Идентификатор : 1
Формат : AVC
Формат/Информация : Advanced Video Codec
Профиль формата : High@L4.1
Параметр CABAC формата : Да
Параметр ReFrames формата : 4 кадра
Идентификатор кодека : V_MPEG4/ISO/AVC
Продолжительность : 1 ч. 29 м.
Битрейт : 17,9 Мбит/сек
Ширина : 1792 пикселя
Высота : 1080 пикселей
Соотношение сторон : 5:3
Режим частоты кадров : Постоянный
Частота кадров : 24,000 кадра/сек
Цветовое пространство : YUV
Субдискретизация насыщенности : 4:2:0
Битовая глубина : 8 бит
Тип развёртки : Прогрессивная
Бит/(Пиксели*Кадры) : 0.385
Размер потока : 11,2 Гбайт (93%)
Заголовок : Rip by msltel
Библиотека кодирования : x264 core 146 r2538 121396c
Настройки программы : cabac=1 / ref=4 / deblock=1:-3:-3 / analyse=0x3:0x113 / me=umh / subme=10 / psy=1 / psy_rd=1.00:0.15 / mixed_ref=1 / me_range=32 / chroma_me=1 / trellis=2 / 8x8dct=1 / cqm=0 / deadzone=21,11 / fast_pskip=0 / chroma_qp_offset=-3 / threads=6 / lookahead_threads=1 / sliced_threads=0 / nr=0 / decimate=1 / interlaced=0 / bluray_compat=0 / constrained_intra=0 / bframes=6 / b_pyramid=2 / b_adapt=2 / b_bias=0 / direct=1 / weightb=1 / open_gop=0 / weightp=2 / keyint=230 / keyint_min=23 / scenecut=40 / intra_refresh=0 / rc_lookahead=40 / rc=crf / mbtree=0 / crf=17.5 / qcomp=0.60 / qpmin=0 / qpmax=69 / qpstep=4 / vbv_maxrate=40000 / vbv_bufsize=50000 / crf_max=0.0 / nal_hrd=none / filler=0 / ip_ratio=1.40 / pb_ratio=1.30 / aq=1:1.00
Язык : French
Default : Да
Forced : Нет

Аудио #1
Идентификатор : 2
Формат : AC-3
Формат/Информация : Audio Coding 3
Расширение режима : CM (complete main)
Параметр Endianness формата : Big
Идентификатор кодека : A_AC3
Продолжительность : 1 ч. 29 м.
Вид битрейта : Постоянный
Битрейт : 192 Кбит/сек
Каналы : 2 канала
Расположение каналов : Front: L R
Частота : 48,0 КГц
Частота кадров : 31,250 кадров/сек (1536 spf)
Метод сжатия : С потерями
Размер потока : 123 Мбайт (1%)
Заголовок : DUB (киностудия им. М.Горького)
Язык : Russian
Default : Да
Forced : Нет

Аудио #2
Идентификатор : 3
Формат : AC-3
Формат/Информация : Audio Coding 3
Расширение режима : CM (complete main)
Параметр Endianness формата : Big
Идентификатор кодека : A_AC3
Продолжительность : 1 ч. 29 м.
Вид битрейта : Постоянный
Битрейт : 384 Кбит/сек
Каналы : 2 канала
Расположение каналов : Front: L R
Частота : 48,0 КГц
Частота кадров : 31,250 кадров/сек (1536 spf)
Метод сжатия : С потерями
Размер потока : 246 Мбайт (2%)
Заголовок : MVO
Язык : Russian
Default : Нет
Forced : Нет

Аудио #3
Идентификатор : 4
Формат : DTS
Формат/Информация : Digital Theater Systems
Режим : 16
Параметр Endianness формата : Big
Идентификатор кодека : A_DTS
Продолжительность : 1 ч. 29 м.
Вид битрейта : Постоянный
Битрейт : 768 Кбит/сек
Каналы : 2 канала
Расположение каналов : Front: L R
Частота : 48,0 КГц
Частота кадров : 93,750 кадра/сек (512 spf)
Битовая глубина : 24 бит
Метод сжатия : С потерями
Размер потока : 493 Мбайт (4%)
Заголовок : original
Язык : French
Default : Нет
Forced : Нет

Меню
00:00:00.000 : :Chapter 01
00:07:14.333 : :Chapter 02
00:14:52.957 : :Chapter 03
00:24:12.708 : :Chapter 04
00:30:03.915 : :Chapter 05
00:37:39.125 : :Chapter 06
00:44:27.207 : :Chapter 07
00:52:24.375 : :Chapter 08
01:01:35.291 : :Chapter 09
01:07:39.166 : :Chapter 10
01:13:50.500 : :Chapter 11
01:23:23.582 : :Chapter 12
01:29:39.750 : :Chapter 13

МОИ РЕЛИЗЫ
ВКОНТАКТЕ
pb.wtf



Скачать Не пойман - не вор через торрент http://s019.radikal.ru/i630/1611/55/10d0429d5831.jpg Скачать фильм Не пойман - не вор через торрент бесплантно в хорошем качестве Описание: Монпаньяр — самый спокойный город Франции. Единственный возмутитель спокойствия — рыночный торговец Блеро. Он имеет разрешение на ... 10 10 3
Info! Золотая раздача, скачанное не засчитывается.
Торрент: Зарегистрирован [2016-11-04 06:17] · скачан: 27 раз
Статус: √ проверено
Размер: 12.05 GB
Как cкачать? Как скачать Не пойман - не вор через торрент | qTorrent

% Раздел Тема Автор DL S | L
Фильмы [HD 720p, 1080p] (Хороший звук DUB, MVO) [ 4.53 GB ] Не пойман - не вор / Ni vu ni connu [1958 BDRip 720p by msltel] DUB MVO msltel Скачать
1 | 0

28-11-2019 20:33  

Отключить всю рекламу на сайте

05-11-2016 13:55 Не пойман - не вор Скачать торрент  

Качество отличное,но присутствуют шумы в звукеpb.wtf



06-11-2016 02:51 Не пойман - не вор Скачать торрент  

так я обожаю Луи де Фюнеса,но фильм я не видел надо исправляться так что спасибо за релизpb.wtf



    Дорогой пользователь! Огромная просьба, поблагодарите релизера, оцените раздачу и оставьте свои комментарий, если Вы скачали Не пойман - не вор через торрент бесплатно! Внесите свою лепту в развитие PiratBit!
    Комментировать посты могут только пользователи прошедшие не сложную регистрацию
    Показать сообщения:    

    Не пойман - не вор через торрент
    Скачать бесплатно Не пойман - не вор
    Не пойман - не вор скачать торрент
    Не пойман - не вор смотреть онлайн
    Cкачать фильм Не пойман - не вор бесплатно
    Не пойман - не вор скачать торрент в хорошем качестве
    Не пойман - не вор смотреть онлайн бесплатно в хорошем качестве


    Вы не можете начинать темы
    Вы не можете отвечать на сообщения
    Вы не можете редактировать свои сообщения
    Вы не можете удалять свои сообщения
    Вы не можете голосовать в опросах
    Вы не можете прикреплять файлы к сообщениям
    Вы можете скачивать файлы