новый адрес
Мега распродажа FORZA HORIZON 4 ULTIMATE+ВСЕ DLC+ОНЛАЙН всего за 499р. 349 руб. (супер цена). Внимание количество ограничено!!!

iTunes

1+1

iTunes

мы

iTunes

1

iTunes

Чернобыль

iTunes

Ральф против интернета

Лицензия

ПШазам

Лицензия

Игра престолов

Лицензия

30
pack

ВАЖНО

!!Акция!!

Alien_RageХит недели

RePack

Resident Evil 21

ИГРА 18+

pack

RePack

Metro:Exodus

!!Акция!!

Alien_Rage

RePack

fifa19

RePack

Assassins Creed: Odyssey

RePack

NEED FOR SPEED™ PAYBACK

3 сезон

9 сезон

Бесстыжие 9 сезон

Все сериалы

все сериалы на PB.wtf

RePack

FAR CRY 5
Ребята, катастрофически не хватает 1900р. для оплаты серверов за Октябрь (всвязи с блокировками трафик упал в 3 раза), 1-2р., выручайте.
  

Как Джанни попал в ад (Татьяна Березанцева, Антон Шароев) [1956, СССР, музыкальный фильм, комедия, SATRip от AVP Studio] pb.wtf

Как Джанни попал в ад через торрент pb.wtf

Размер: 745 MB | Добавлен: 3 года назад | Торрент скачан:13 раз
Скачать  

04-11-2016 16:01 Как Джанни попал в ад Скачать торрент  

Как Джанни попал в ад
Страна: СССР
Производство: Мосфильм

Жанр: музыкальный фильм, комедия
Год выпуска: 1956
Продолжительность: 00:53:16

Перевод: Не требуется
Cубтитры: нет
Оригинальная аудиодорожка: русский

Режиссер: Татьяна Березанцева, Антон Шароев

В ролях:
Максим Греков, Эмилия Мильтон, Юрий Лоран, Аркадий Цинман, Зана Занони, Леонид Пирогов, Виктория Чаева, Раиса Максимова, Валентин Кулик, Георгий Абрамов, Даниил Демьянов...
Полный список актёров

Описание:
По опере Дж. Пуччини "Джанни Скикки". Средневековой Флоренции в 1299 году. Богатый дядюшка Буозо Донати умер, и его бедные родственники, толпившиеся вокруг ложа смерти, находят завещание — все оставлено монахам. И тогда они зовут некого Джанни Скикки — пожилого итальянского мошенника и проходимца. У него есть дочь Лауретта, влюбленная в Ринуччо. Он прячет тело умершего дядюшки, гримируется под него и голосом покойника зовет нотариуса. Все родственники в восторге ждут: сейчас завещание будет переписано в их пользу. Нотариус слышит с полутемного ложа слова "дядюшки": "Все свое имущество я завещаю… я завещаю… я завещаю своему любимому другу Джанни Скикки!". Разбогатевший Скикки дает дочери Лауретте приданое и она, наконец, может выйти замуж за своего любимого — Ринуччо (одного из многочисленных родственников покойного, единственного из них, кто получает выгоду от происшедшего)...

Источник: DVB
Качество видео: SATRip
Формат видео: AVI

Видео: 704x528 (4:3), 25 fps, XviD ~ 1755 kbps avg, 0.189 bit/pixel
Аудио: 48 kHz, Dolby Digital AC3 2.0, 192 kbps

Раздача от:
Общее
Полное имя : Kak.Dzhanni.popal.v.ad.1956. SATRip_[New-team]_by_AVP_Studio.avi
Формат : AVI
Формат/Информация : Audio Video Interleave
Размер файла : 745 Мбайт
Продолжительность : 53 м. 15 с.
Общий поток : 1956 Кбит/сек
Программа кодирования : VirtualDubMod 1.5.10.3 | www.virtualdub-fr.org || (build 2550/release)
Библиотека кодирования : VirtualDubMod build 2550/release

Видео
Идентификатор : 0
Формат : MPEG-4 Visual
Профиль формата : Advanced Simple@L5
Параметр BVOP формата : 1
Параметр QPel формата : Нет
Параметр GMC формата : Без точки перехода
Параметр матрицы формата : Выборочная
Идентификатор кодека : XVID
Идентификатор кодека/Подсказка : XviD
Продолжительность : 53 м. 15 с.
Битрейт : 1755 Кбит/сек
Ширина : 704 пикселя
Высота : 528 пикселей
Соотношение сторон : 4:3
Частота кадров : 25,000 кадров/сек
Цветовое пространство : YUV
Субдискретизация насыщенности : 4:2:0
Битовая глубина : 8 бит
Тип развёртки : Прогрессивная
Метод сжатия : С потерями
Бит/(Пиксели*Кадры) : 0.189
Размер потока : 668 Мбайт (90%)
Библиотека кодирования : XviD 1.2.1 (UTC 2008-12-04)

Аудио
Идентификатор : 1
Формат : AC-3
Формат/Информация : Audio Coding 3
Расширение режима : CM (complete main)
Параметр Endianness формата : Big
Идентификатор кодека : 2000
Продолжительность : 53 м. 15 с.
Вид битрейта : Постоянный
Битрейт : 192 Кбит/сек
Каналы : 2 канала
Расположение каналов : Front: L R
Частота : 48,0 КГц
Частота кадров : 31,250 кадров/сек (1536 spf)
Битовая глубина : 16 бит
Метод сжатия : С потерями
Размер потока : 73,1 Мбайт (10%)
Выравнивание : Разделение по промежуткам
Продолжительность промежутка : 40 мс. (1,00 видеокадр)
Время предзагрузки промежутка : 500 мс
pb.wtf



Скачать Как Джанни попал в ад через торрент http://s019.radikal.ru/i608/1611/03/c015bc3156cd.png Скачать фильм Как Джанни попал в ад через торрент бесплантно в хорошем качестве Описание:По опере Дж. Пуччини "Джанни Скикки". Средневековой Флоренции в 1299 году. Богатый дядюшка Буозо Донати умер, и его бедные ... 5 10 1
Info! Золотая раздача, скачанное не засчитывается.
Торрент: Зарегистрирован [2016-11-04 16:01] · скачан: 13 раз
Статус: √ проверено
Размер: 745 MB
Как cкачать? Как скачать Как Джанни попал в ад через торрент | qTorrent

% Раздел Тема Автор DL S | L
Кино СССР [ 744 MB ] Как Джанни попал в ад [1956 СССР музыкальный фильм SATRip-AVC от AVP Studio] AVP Studio Скачать
1 | 0


>> Регистрируемся здесь <<






Отзывы и комментарии о схеме читаем и пишем здесь: ---> Отзывы и комментарии о схеме

Новые благодарочки в телеграм довольных пользователей:
скриншот   скриншот   скриншот   скриншот   скриншот
    Дорогой пользователь! Огромная просьба, поблагодарите релизера, оцените раздачу и оставьте свои комментарий, если Вы скачали Как Джанни попал в ад через торрент бесплатно! Внесите свою лепту в развитие PiratBit!
    Комментировать посты могут только пользователи прошедшие не сложную регистрацию
    Показать сообщения:    

    Как Джанни попал в ад через торрент
    Скачать бесплатно Как Джанни попал в ад
    Как Джанни попал в ад скачать торрент
    Как Джанни попал в ад смотреть онлайн
    Cкачать фильм Как Джанни попал в ад бесплатно
    Как Джанни попал в ад скачать торрент в хорошем качестве
    Как Джанни попал в ад смотреть онлайн бесплатно в хорошем качестве


    Вы не можете начинать темы
    Вы не можете отвечать на сообщения
    Вы не можете редактировать свои сообщения
    Вы не можете удалять свои сообщения
    Вы не можете голосовать в опросах
    Вы не можете прикреплять файлы к сообщениям
    Вы можете скачивать файлы