новый адрес
Мега распродажа FORZA HORIZON 4 ULTIMATE+ВСЕ DLC+ОНЛАЙН всего за 499р. 349 руб. (супер цена). Внимание количество ограничено!!!

iTunes

1+1

iTunes

мы

iTunes

1

iTunes

Чернобыль

iTunes

Ральф против интернета

Лицензия

ПШазам

Лицензия

Игра престолов

Лицензия

30
pack

ВАЖНО

!!Акция!!

Alien_RageХит недели

RePack

Resident Evil 21

ИГРА 18+

pack

RePack

Metro:Exodus

!!Акция!!

Alien_Rage

RePack

fifa19

RePack

Assassins Creed: Odyssey

RePack

NEED FOR SPEED™ PAYBACK

3 сезон

9 сезон

Бесстыжие 9 сезон

Все сериалы

все сериалы на PB.wtf

RePack

FAR CRY 5
Ребята, катастрофически не хватает 1900р. для оплаты серверов за Октябрь (всвязи с блокировками трафик упал в 3 раза), 1-2р., выручайте.
  

Теория тигра / Teorie tygra (Радек Байгар) [2016, комедия, DVDRip] Любительский (одноголосый) pb.wtf

Теория тигра через торрент pb.wtf

Размер: 1.44 GB | Добавлен: 3 года назад | Торрент скачан:143 раза
Скачать  

04-11-2016 23:44 Теория тигра Скачать торрент  

Теория тигра / Teorie tygra


Год выпуска: 2016
Страна: Чехия
Жанр: комедия

Продолжительность: 01:42:52
Перевод: Любительский (одноголосый)
Режиссер: Радек Байгар
В ролях:

Луция Сипосова (Julia), Ива Янжурова (Grandmother), Иржи Бартошка (Jan), Татьяна Вильгельмова (Olinka), Элишка Балцерова (Olga), Якуб Когак (Josef), Клара Мелишкова, Яромир Дулава, Арност Голдфлам, Милан Ласица, Ондржей Павелка, Иржи Хавелка (Erik)
Описание:
В этой семье три поколения женщин делают всё, буквально всё, чтобы мужья их были счастливы. В том смысле счастливы, в каком это понимают они: здоровый образ жизни, семейный круг и строгое подчинение законам «идеального брака». Женщина, хранительница очага, все знает лучше, когда дело доходит до бытовых проблем. Вообще-то она знает лучше абсолютно всё.
Яну Бергеру в голову не приходит подвергать это сомнению. Живет, как у Христа за пазухой, но почему-то несчастлив. Возможно потому, что живет не своей жизнью. Смерть тестя, погубленного неумолимой заботой тёщи, заставляет его понять это – и начать действовать.
Он готовит побег, вот только довольно странным и диким образом. Симулируя болезнь Алцгеймера. И хотя все быстро выходит из-под контроля, его бунт подхватывает и молодое поколение.
Истинно чешская трагикомедия
Мировая премьера: 31 марта 2016

Качество: DVDRip
Формат: AVI
Видео: XviD, 720x400 (16:9), 1318 kbps, 25 fps, 0.183 bpp
Аудио №1: AC3 / 5.1 / 48 kHz / 448 kbps / 16 bit
Аудио №2: AC3 / 2.0 / 48 kHz / 224 kbps / 16 bit


Video
ID : 0
Format : MPEG-4 Visual
Format profile : Advanced Simple@L4
Format settings, BVOP : 2
Format settings, QPel : No
Format settings, GMC : No warppoints
Format settings, Matrix : Default (H.263)
Muxing mode : Packed bitstream
Codec ID : XVID
Codec ID/Hint : XviD
Duration : 1 h 42 min
Bit rate : 1 318 kb/s
Width : 720 pixels
Height : 400 pixels
Display aspect ratio : 16:9
Frame rate : 25.000 FPS
Color space : YUV
Chroma subsampling : 4:2:0
Bit depth : 8 bits
Scan type : Progressive
Compression mode : Lossy
Bits/(Pixel*Frame) : 0.183
Stream size : 970 MiB (66%)
Writing library : XviD 67

Audio #1
ID : 1
Format : AC-3
Format/Info : Audio Coding 3
Mode extension : CM (complete main)
Format settings, Endianness : Big
Codec ID : 2000
Duration : 1 h 42 min
Bit rate mode : Constant
Bit rate : 448 kb/s
Channel(s) : 6 channels
Channel positions : Front: L C R, Side: L R, LFE
Sampling rate : 48.0 kHz
Frame rate : 31.250 FPS (1536 spf)
Bit depth : 16 bits
Compression mode : Lossy
Stream size : 330 MiB (22%)
Alignment : Aligned on interleaves
Interleave, duration : 32 ms (0.80 video frame)
Title : Kass

Audio #2
ID : 2
Format : AC-3
Format/Info : Audio Coding 3
Mode extension : CM (complete main)
Format settings, Endianness : Big
Codec ID : 2000
Duration : 1 h 42 min
Bit rate mode : Constant
Bit rate : 224 kb/s
Channel(s) : 2 channels
Channel positions : Front: L R
Sampling rate : 48.0 kHz
Frame rate : 31.250 FPS (1536 spf)
Bit depth : 16 bits
Compression mode : Lossy
Stream size : 165 MiB (11%)
Alignment : Aligned on interleaves
Interleave, duration : 32 ms (0.80 video frame)
Title : original

© Оформление by White Smoke pb.wtf



Скачать Теория тигра через торрент http://i1.imageban.ru/out/2016/11/05/982ab87fd7995c4340b0d16f3b8eda08.jpg Скачать фильм Теория тигра через торрент бесплантно в хорошем качестве Описание: В этой семье три поколения женщин делают всё, буквально всё, чтобы мужья их были счастливы. В том смысле счастливы, в каком это ... 9.8 10 5
Торрент: Зарегистрирован [2016-11-04 23:44] · скачан: 143 раз
Статус: T временная
Размер: 1.44 GB
Как cкачать? Как скачать Теория тигра через торрент | qTorrent

% Раздел Тема Автор DL S | L
T Фильмы 2016 (Звук TS, Cam, VO, DVO) [ 1.45 GB ] Теория тигра / Teorie tygra [2016 WEB-DLRip] VO [Kass] bober100 Скачать
1 | 0


Последний раз редактировалось: PsYcho (2016-11-05 00:17), всего редактировалось 1 раз


>> Регистрируемся здесь <<






Отзывы и комментарии о схеме читаем и пишем здесь: ---> Отзывы и комментарии о схеме

Новые благодарочки в телеграм довольных пользователей:
скриншот   скриншот   скриншот   скриншот   скриншот

05-11-2016 00:09 Теория тигра Скачать торрент  

инфрмер должен быть, а не кнопка-переход... либо удаляй кнопку кинопоиск, либо добавляй информер

Для релизёров и не только.... pb.wtf



06-11-2016 00:53 Теория тигра Скачать торрент  

Цитата:

Перевод: Любительский (одноголосый)

Эмм... а разве это не раздел дубляжа\многоголоски онли?pb.wtf



17-01-2017 18:26 Теория тигра Скачать торрент  

Фильм хороший, но это ни в коем разе не комедия.pb.wtf



    Дорогой пользователь! Огромная просьба, поблагодарите релизера, оцените раздачу и оставьте свои комментарий, если Вы скачали Теория тигра через торрент бесплатно! Внесите свою лепту в развитие PiratBit!
    Комментировать посты могут только пользователи прошедшие не сложную регистрацию
    Показать сообщения:    

    Теория тигра через торрент
    Скачать бесплатно Теория тигра
    Теория тигра скачать торрент
    Теория тигра смотреть онлайн
    Cкачать фильм Теория тигра бесплатно
    Теория тигра скачать торрент в хорошем качестве
    Теория тигра смотреть онлайн бесплатно в хорошем качестве


    Вы не можете начинать темы
    Вы не можете отвечать на сообщения
    Вы не можете редактировать свои сообщения
    Вы не можете удалять свои сообщения
    Вы не можете голосовать в опросах
    Вы не можете прикреплять файлы к сообщениям
    Вы можете скачивать файлы