2 сезон

iTunes

MVO

1

2 сезон

iTunes

iTunes

1 сезон

RePack

30

Новинка

ВАЖНО

ИГРА 18+

pack

RePack

MK11
pack

Легкие деньги

RePack

jed

RePack

fifa19

RePack

RDR2

RePack

NEED FOR SPEED™ PAYBACK

4 сезон

9 сезон

Бесстыжие 9 сезон

Все сериалы

все сериалы на PB.wtf

RePack

FAR CRY 5

Anonymous, доброе утро, мы не успеваем собрать деньги на оплату серверов за декабрь и январь, помогите нам пожалуйста в это трудное время. В качестве благодарности мы отключим Вам всю рекламу на сайте (укажите свой ник в строку Ваше имя)!

×
  
Magnet ссылка

Ночной тариф / Night Fare (Жюльен Сери) [2015, триллер, HDRip] Профессиональный многоголосый [Чистый звук] pb.wtf

Ночной тариф через торрент pb.wtf

Размер: 1.37 GB | Добавлен: 4 года 2 мес. назад | Торрент скачан:321 раз
Скачать  

05-11-2016 01:05 Ночной тариф Скачать торрент  

Ночной тариф / Night Fare


Год выпуска: 2015
Страна: Франция
Жанр: триллер

Продолжительность: 01:21:11
Перевод: Профессиональный многоголосый [Чистый звук]
Режиссер: Жюльен Сери
В ролях:

Джонатан Ховард (Chris), Жонатан Демурже (Luc), Фанни Валетт (Ludivine), Жан-Франсуа Леног (Dimitri), Джесс Лиодин (The Driver), Эдуард Монтут (Le policier), Закария Гуран (Detox), Alix Bénézech (Marie), Moussa Sylla (Jeune recrue de police), Marinelly Vaslon
Описание:
Древнее поверье гласит, если человек причинил вред другому, рано или поздно на горизонте появится Мститель, который найдет и покарает его. Если это случилось, избежать смерти возможно только, если ты сам готов на время стать таким Мстителем и найти нового грешника. Двое друзей вечеринки в ночном клубе решают взять такси. Легкомысленно не заплатив за проезд, они еще не догадывались, что сели не в то такси. Таинственный водитель начинает настоящую охоту за ними, убивая всех, кто встает на пути.
Мировая премьера: 17 июля 2015

Качество: HDRip
Формат: AVI
Видео: XviD, 720x304 (2.35:1), 2016 kbps, 24 fps, 0.384 bpp
Аудио: AC3 / 2.0 / 48 kHz / 384 kbps /

Примечание: Присутствует реклама
Video
ID : 0
Format : MPEG-4 Visual
Format profile : Advanced Simple@L5
Format settings, BVOP : 2
Format settings, QPel : No
Format settings, GMC : No warppoints
Format settings, Matrix : Default (MPEG)
Codec ID : XVID
Codec ID/Hint : XviD
Duration : 1 h 21 min
Bit rate : 2 017 kb/s
Width : 720 pixels
Height : 304 pixels
Display aspect ratio : 2.35:1
Frame rate : 24.000 FPS
Color space : YUV
Chroma subsampling : 4:2:0
Bit depth : 8 bits
Scan type : Progressive
Compression mode : Lossy
Bits/(Pixel*Frame) : 0.384
Stream size : 1.14 GiB (84%)
Writing library : XviD 1.2.1 (UTC 2008-12-04)

Audio
ID : 1
Format : AC-3
Format/Info : Audio Coding 3
Mode extension : CM (complete main)
Format settings, Endianness : Big
Codec ID : 2000
Duration : 1 h 21 min
Bit rate mode : Constant
Bit rate : 384 kb/s
Channel(s) : 2 channels
Channel positions : Front: L R
Sampling rate : 48.0 kHz
Frame rate : 31.250 FPS (1536 spf)
Compression mode : Lossy
Stream size : 223 MiB (16%)
Alignment : Split accross interleaves
Interleave, duration : 42 ms (1.00 video frame)
Interleave, preload duration : 500 ms

© Оформление by White Smoke pb.wtf



Скачать Ночной тариф через торрент http://i4.imageban.ru/out/2016/11/05/d7369b8604c66acea823aae5e9e1af05.jpg Скачать фильм Ночной тариф через торрент бесплантно в хорошем качестве Описание: Древнее поверье гласит, если человек причинил вред другому, рано или поздно на горизонте появится Мститель, который найдет и ... 8.9 10 12
Info! Золотая раздача, скачанное не засчитывается.
Торрент: Зарегистрирован [2016-11-05 01:10] · скачан: 321 раз
Статус: T временная
Размер: 1.37 GB
Как cкачать? Как скачать Ночной тариф через торрент | UTorrent

% Раздел Тема Автор DL S | L
T Фильмы 2015 [DVDrip, WEB-DLRip, HDrip] [ 1.37 GB ] Ночной тариф / Night Fare [2015 HDRip] [MVO] killermax2013 Скачать
1 | 0
T Фильмы 2015 [DVDrip, WEB-DLRip, HDrip] [ 747 MB ] Ночной тариф / Night Fare [2015 HDRip] [MVO] Sherif Скачать
1 | 0

28-11-2019 20:33  

Отключить всю рекламу на сайте

05-11-2016 09:07 Ночной тариф Скачать торрент  

КЛАССНЫЙ ФИЛЬМ! НА 8 ИЗ 10! РЕКОМЕНДУЮ К ПРОСМОТРУ!pb.wtf



05-11-2016 09:08 Ночной тариф Скачать торрент  

ДА НЕТ РЕКЛАМЫ В ФИЛЬМЕpb.wtf



    Дорогой пользователь! Огромная просьба, поблагодарите релизера, оцените раздачу и оставьте свои комментарий, если Вы скачали Ночной тариф через торрент бесплатно! Внесите свою лепту в развитие PiratBit!
    Комментировать посты могут только пользователи прошедшие не сложную регистрацию
    Показать сообщения:    

    Ночной тариф через торрент
    Скачать бесплатно Ночной тариф
    Ночной тариф скачать торрент
    Ночной тариф смотреть онлайн
    Cкачать фильм Ночной тариф бесплатно
    Ночной тариф скачать торрент в хорошем качестве
    Ночной тариф смотреть онлайн бесплатно в хорошем качестве


    Вы не можете начинать темы
    Вы не можете отвечать на сообщения
    Вы не можете редактировать свои сообщения
    Вы не можете удалять свои сообщения
    Вы не можете голосовать в опросах
    Вы не можете прикреплять файлы к сообщениям
    Вы можете скачивать файлы