Ссылка на приватное зеркало нашего сайта всего за 1$. Внимание количество ограничено!!!

2 сезон

iTunes

1 сезон

1

2 сезон

2 сезон

iTunes

1 сезон

RePack

30

Новинка

ВАЖНО

ИГРА 18+

pack

RePack

MK11
pack

Забери бонус

RePack

jed

!!Акция!!

Alien_Rage

RePack

fifa19

RePack

Assassins Creed: Odyssey

RePack

NEED FOR SPEED™ PAYBACK

4 сезон

9 сезон

Бесстыжие 9 сезон

Все сериалы

все сериалы на PB.wtf

RePack

FAR CRY 5
  

Салем / Salem / Сезон 3 / Серии 1-10 из 10 (Ник Копус / Nick Copus, Дэвид Фон Энкен / David Von Ancken, Алекс Закржевский / Alex Zakrzewski) [2016, США, фэнтези, триллер, драма, WEB-DLRip-AVC,] MVO [LostFilm] pb.wtf

Салем через торрент pb.wtf

Размер: 8.49 GB | Добавлен: 3 года 10 мес. назад | Торрент скачан:56 раз
Скачать  

05-11-2016 02:35 Салем Скачать торрент  


Салем / Salem

«Ведьмы среди нас»


  • Год выпуска: 2016
  • Страна: США
  • Жанр: фэнтези, триллер, драма
  • Продолжительность: 00:47:11 (Серия)
  • Перевод: Профессиональный многоголосый [LostFilm]
  • Режиссер: Ник Копус / Nick Copus, Дэвид Фон Энкен / David Von Ancken, Алекс Закржевский / Alex Zakrzewski
  • В ролях:

    Шейн Уэст (John Alden), Джанет Монтгомери (Mary Sibley), Сет Гейбл (Cotton Mather), Элиз Эберли (Mercy Lewis), Тэмзин Мёрчант (Anne Hale), Эшли Мадекве (Tituba), Иддо Голдберг (Isaac Walton), Джереми Саммерс (Selectman), Джереми Кратчли (Hathorne), Ребекка Гэмбл (Refugee), Joe Doyle (Baron Sebastian Marburg), Оливер Белл (John)


  • Дьявол явился на землю, и Салем, страдающий от наплыва беженцев, которые спасаются от индейцев и французов, судя по всему, обречён погибнуть, став местом коронации Тёмного владыки. Но у эссекских ведьм, недовольных тем, что Отец лжи не сдержал своё обещание, есть своё мнение на этот счёт.
  • Рейтинг:



  • Качество: WEB-DLRip-AVC
  • Формат: :MPEG-4
  • Видео кодек: AVC
  • Аудио кодек: AC3
  • Видео: 1904 Кбит/сек, 1024*576 (16:9), в 23,976 (24000/1001) кадра/сек, AVC
  • Аудио №1: русский 384 Кбит/сек, 48,0 КГц, 16 бит, 2 канала, AC-3 |[LostFilm]|
  • Аудио №2: английский 384 Кбит/сек, 48,0 КГц, 16 бит, 2 канала, AC-3
  • Релиз от: GEKADOL

    Внимание! Раздача ведётся путём добавления новых серий; при каждом добавлении создаётся новый торрент. Чтобы начать докачку новой серии, пользователям необходимо сделать следующее:
    (1) остановить скачивание,
    (2) удалить старый торрент у себя из клиента (старые серии удалять не надо),
    (3) скачать новый торрент и запустить его у себя в клиенте вместо старого, при этом указать клиенту путь в старую папку куда и должно происходить скачивание новых серий.
    Ваш клиент при этом должен произвести хеширование (проверку) старой папки (если не производит сам - помогите ему сделать это), и будет докачивать только те серии которых у вас ещё нет. Старые серии при этом не удаляются, а продолжают раздаваться!
    Eсли вы уже удалили старые серии, то предотвратить повторную закачку старых серий можно, отжав галочку в соответствующих местах при запуске нового торрента. По возможности, желательно не удалять старые серии как можно дольше чтобы релизёр не столько продолжал раздавать старые серии, а смог сконцентрироваться на новых.

    Общее
    Полное имя : H:\Салем (Salem) LostFilm\Salem.S03E01.WEB-DLRip-AVC.rus.LostFilm.TV.mp4
    Формат : MPEG-4
    Профиль формата : Base Media
    Идентификатор кодека : isom (isom/iso2/avc1/mp41)
    Размер файла : 906 Мбайт
    Продолжительность : 47 м.
    Общий поток : 2677 Кбит/сек
    Программа кодирования : XviD4PSP 7.0.305 DAILY
    HDVideo : Yes
    encoding_info : MATROSKA / WEBM > MP4 Произвольный / H264 > X264 CBR 2000kbps HQ / AC3 > AC3 CBR 384kbps / AC3 > AC3 CBR 384kbps

    Видео
    Идентификатор : 1
    Формат : AVC
    Формат/Информация : Advanced Video Codec
    Профиль формата : High@L3.1
    Параметр CABAC формата : Да
    Параметр ReFrames формата : 4 кадра
    Идентификатор кодека : avc1
    Идентификатор кодека/Информация : Advanced Video Coding
    Продолжительность : 47 м.
    Битрейт : 1904 Кбит/сек
    Номинальный битрейт : 2000 Кбит/сек
    Ширина : 1024 пикселя
    Высота : 576 пикселей
    Соотношение сторон : 16:9
    Режим частоты кадров : Постоянный
    Частота кадров : 23,976 (24000/1001) кадра/сек
    Цветовое пространство : YUV
    Субдискретизация насыщенности : 4:2:0
    Битовая глубина : 8 бит
    Тип развёртки : Прогрессивная
    Бит/(Пиксели*Кадры) : 0.135
    Размер потока : 645 Мбайт (71%)
    Библиотека кодирования : x264 core 148 r2721M 72d53ab
    Настройки программы : cabac=1 / ref=3 / deblock=1:-1:-1 / analyse=0x3:0x133 / me=hex / subme=7 / psy=1 / psy_rd=1.00:0.20 / mixed_ref=1 / me_range=16 / chroma_me=1 / trellis=1 / 8x8dct=1 / cqm=0 / deadzone=21,11 / fast_pskip=1 / chroma_qp_offset=-3 / threads=5 / lookahead_threads=1 / sliced_threads=0 / nr=0 / decimate=1 / interlaced=0 / bluray_compat=0 / constrained_intra=0 / bframes=3 / b_pyramid=2 / b_adapt=2 / b_bias=0 / direct=3 / weightb=1 / open_gop=0 / weightp=2 / keyint=230 / keyint_min=23 / scenecut=40 / intra_refresh=0 / rc_lookahead=40 / rc=cbr / mbtree=1 / bitrate=2000 / ratetol=1.0 / qcomp=0.60 / qpmin=0 / qpmax=69 / qpstep=4 / vbv_maxrate=2000 / vbv_bufsize=2000 / nal_hrd=none / filler=0 / ip_ratio=1.40 / aq=1:1.00

    Аудио #1
    Идентификатор : 2
    Формат : AC-3
    Формат/Информация : Audio Coding 3
    Расширение режима : CM (complete main)
    Параметр Endianness формата : Big
    Идентификатор кодека : ac-3
    Продолжительность : 47 м.
    Вид битрейта : Постоянный
    Битрейт : 384 Кбит/сек
    Каналы : 2 канала
    Расположение каналов : Front: L R
    Частота : 48,0 КГц
    Частота кадров : 31,250 кадров/сек (1536 spf)
    Битовая глубина : 16 бит
    Метод сжатия : С потерями
    Размер потока : 130 Мбайт (14%)
    Default : Да
    Alternate group : 1

    Аудио #2
    Идентификатор : 3
    Формат : AC-3
    Формат/Информация : Audio Coding 3
    Расширение режима : CM (complete main)
    Параметр Endianness формата : Big
    Идентификатор кодека : ac-3
    Продолжительность : 47 м.
    Вид битрейта : Постоянный
    Битрейт : 384 Кбит/сек
    Каналы : 2 канала
    Расположение каналов : Front: L R
    Частота : 48,0 КГц
    Частота кадров : 31,250 кадров/сек (1536 spf)
    Битовая глубина : 16 бит
    Метод сжатия : С потерями
    Размер потока : 130 Мбайт (14%)
    Default : Нет
    Alternate group : 1



    Скриншоты:
    скриншот   скриншот   скриншот   скриншот   скриншот   скриншот   скриншот  
    скриншот  

    Раздача ведётся путём добавления новых серий. Добавлена 10 серия (28.01.2017).Просьба перекачать торрент файл.

    pb.wtf



  • Скачать Салем через торрент http://pic1.kartinco.top/images/11/fkmu4.jpg Скачать фильм Салем через торрент бесплантно в хорошем качестве qw.png Дьявол явился на землю, и Салем, страдающий от наплыва беженцев, которые спасаются от индейцев и французов, судя по всему, обречён ... 9.4 10 14
    Info! Золотая раздача, скачанное не засчитывается.
    Торрент: Зарегистрирован [2017-01-28 02:23] · скачан: 56 раз
    Статус: √ проверено
    Размер: 8.49 GB
    Как cкачать? Как скачать Салем через торрент | qTorrent

    % Раздел Тема Автор DL S | L
    Зарубежные сериалы [ 8.8 GB ] Салем / Salem / Сезон 3 / Серии 1-10 из 10 [2016 WEB-DLRip-AVC HDTVRip-AVC] MVO [AlexFilm] GEKADOL Скачать
    1 | 0

    28-11-2019 20:33  

    Отключить всю рекламу на сайте

    02-07-2017 12:47 Салем Скачать торрент  

    встаньте на раздачу пожалуйстаpb.wtf



      Дорогой пользователь! Огромная просьба, поблагодарите релизера, оцените раздачу и оставьте свои комментарий, если Вы скачали Салем через торрент бесплатно! Внесите свою лепту в развитие PiratBit!
      Комментировать посты могут только пользователи прошедшие не сложную регистрацию
      Показать сообщения:    

      Салем через торрент
      Скачать бесплатно Салем
      Салем скачать торрент
      Салем смотреть онлайн
      Cкачать фильм Салем бесплатно
      Салем скачать торрент в хорошем качестве
      Салем смотреть онлайн бесплатно в хорошем качестве


      Вы не можете начинать темы
      Вы не можете отвечать на сообщения
      Вы не можете редактировать свои сообщения
      Вы не можете удалять свои сообщения
      Вы не можете голосовать в опросах
      Вы не можете прикреплять файлы к сообщениям
      Вы можете скачивать файлы