Ссылка на приватное зеркало нашего сайта всего за 1$. Внимание количество ограничено!!!

2 сезон

iTunes

1 сезон

1

iTunes

iTunes

iTunes

1 сезон

RePack

30

ИГРА 18+

pack

ВАЖНО

!!Акция!!

Alien_RageХит недели

RePack

MK11
pack

Забери бонус

RePack

jed

!!Акция!!

Alien_Rage

RePack

fifa19

RePack

Assassins Creed: Odyssey

RePack

NEED FOR SPEED™ PAYBACK

4 сезон

9 сезон

Бесстыжие 9 сезон

Все сериалы

все сериалы на PB.wtf

RePack

FAR CRY 5
  

9 1/2 недель / Nine 1/2 Weeks (Эдриан Лайн) [1985, драма, мелодрама, BDRip 1080p by msltel] DUB, 2 x MVO, 4 x AVO pb.wtf

9 1 через торрент pb.wtf

Размер: 20.1 GB | Добавлен: 3 года 11 мес. назад | Торрент скачан:21 раз
Скачать  

05-11-2016 07:09 9 1 Скачать торрент  

Название: 9 1/2 недель
Оригинальное название: Nine 1/2 Weeks
Год выпуска: 1985
Страна: США
Жанр: драма, мелодрама
Продолжительность: 01:56:51
Перевод: дублированный, профессиональный многоголосый, авторский

Режиссёр: Эдриан Лайн

В ролях: Ким Бейсингер, Микки Рурк, Маргарет Уиттон, Дэвид Маргулис, Кристин Барански, Карен Янг, Уильям Де Акутис, Дуайт Уайст, Родерик Кук, Виктор Труро, Джастин Джонстон, Синтия Круз, Ким Чан, Ли Лаи Синг, Рудольф Уиллрич, Хелен Хэнфт, Майкл П. Моран, Рейнор Шайни, Олек Крупа, Майкл Марготта, Джулиан Бек, Джон П. Коннолли, Кассандра Данц, Беата Яхульски, Питер Паган

Описание: Когда Элизабет встречает Джона, её уравновешенность улетучивается. Изощрённый соблазнитель втягивает её в эффектную любовную игру, которая заставляет отказаться от прежних жизненных принципов. Их свидания — это утоление голода, это мед, стекающий по её груди, это клубника, которую он губами вынимает у неё изо рта; их постель — это металлическая лестница в подворотне, где они занимаются любовью. И сама их любовь — это дождь, льющийся из разверзшихся небес, это землетрясение, это всесокрушающий ураган. Их любовь — это трагическая невозможность жить вместе, потому что вместо вопроса «что я могу сделать для тебя?» оба задаются вопросом «на что ты готов пойти ради меня?»… Фильм снят по мотивам автобиографического романа Элизабет МакНилл «9 1/2 недель» (9 1/2 Weeks, 1978).



Качество: BDRip 1080p Сравнение с исходником
Формат: MKV
Видео: MPEG-4 AVC, 17.6 Mбит/с, 1920x1080, 23,976 кадра/с
Аудио 1: русский, AC3, 192 kbps, 2 ch, 48 kHz [дублированный, Хлопушка]
Аудио 2: русский, AC3, 448 kbps, 6 ch, 48 kHz [профессиональный многоголосый, R5]
Аудио 3: русский, DTS, 1509 kbps, 6 ch, 48 kHz [профессиональный многоголосый, Карусель]
Аудио 4: русский, AC3, 192 kbps, 2 ch, 48 kHz [авторский, Леонид Володарский]
Аудио 5: русский, DTS, 1509 kbps, 6 ch, 48 kHz [авторский, Вартан Дохалов]
Аудио 6: русский, DTS, 1509 kbps, 6 ch, 48 kHz [авторский, Юрий Живов]
Аудио 7: русский, AC3, 192 kbps, 2 ch, 48 kHz [авторский, Алексей Михалёв]
Аудио 8: английский, DTS, 1509 kbps, 6 ch, 48 kHz [оригинал]
Субтитры 1: русские
Субтитры 2: английские (для слабослышащих)
Имеются неименованные главы/чаптеры.
Общее
Уникальный идентификатор : 216782791680084296467716558015747739373 (0xA316D8D47F578511877D3CD49E064EED)
Полное имя : D:\Video\Девять с половиной недель.1986.BDRip.1080p by msltel.mkv
Формат : Matroska
Версия формата : Version 4 / Version 2
Размер файла : 20,1 Гбайт
Продолжительность : 1 ч. 56 м.
Общий поток : 24,6 Мбит/сек
Название фильма : Rip by msltel
Дата кодирования : UTC 2016-11-05 02:33:44
Программа кодирования : mkvmerge v8.2.0 ('World of Adventure') 64bit
Библиотека кодирования : libebml v1.3.1 + libmatroska v1.4.2

Видео
Идентификатор : 1
Формат : AVC
Формат/Информация : Advanced Video Codec
Профиль формата : High@L4.1
Параметр CABAC формата : Да
Параметр ReFrames формата : 4 кадра
Идентификатор кодека : V_MPEG4/ISO/AVC
Продолжительность : 1 ч. 56 м.
Битрейт : 17,6 Мбит/сек
Ширина : 1920 пикселей
Высота : 1080 пикселей
Соотношение сторон : 16:9
Режим частоты кадров : Постоянный
Частота кадров : 23,976 (24000/1001) кадра/сек
Цветовое пространство : YUV
Субдискретизация насыщенности : 4:2:0
Битовая глубина : 8 бит
Тип развёртки : Прогрессивная
Бит/(Пиксели*Кадры) : 0.353
Размер потока : 14,3 Гбайт (71%)
Заголовок : Rip by msltel
Библиотека кодирования : x264 core 146 r2538 121396c
Настройки программы : cabac=1 / ref=4 / deblock=1:-3:-3 / analyse=0x3:0x113 / me=umh / subme=10 / psy=1 / psy_rd=1.00:0.15 / mixed_ref=1 / me_range=32 / chroma_me=1 / trellis=2 / 8x8dct=1 / cqm=0 / deadzone=21,11 / fast_pskip=0 / chroma_qp_offset=-3 / threads=6 / lookahead_threads=1 / sliced_threads=0 / nr=0 / decimate=1 / interlaced=0 / bluray_compat=0 / constrained_intra=0 / bframes=13 / b_pyramid=2 / b_adapt=2 / b_bias=0 / direct=1 / weightb=1 / open_gop=0 / weightp=2 / keyint=230 / keyint_min=23 / scenecut=40 / intra_refresh=0 / rc_lookahead=40 / rc=crf / mbtree=0 / crf=20.4 / qcomp=0.60 / qpmin=0 / qpmax=69 / qpstep=4 / vbv_maxrate=40000 / vbv_bufsize=50000 / crf_max=0.0 / nal_hrd=none / filler=0 / ip_ratio=1.40 / pb_ratio=1.30 / aq=1:1.00
Язык : English
Default : Да
Forced : Нет

Аудио #1
Идентификатор : 2
Формат : AC-3
Формат/Информация : Audio Coding 3
Профиль формата : Dolby Digital
Расширение режима : CM (complete main)
Параметр Endianness формата : Big
Идентификатор кодека : A_AC3
Продолжительность : 1 ч. 56 м.
Вид битрейта : Постоянный
Битрейт : 192 Кбит/сек
Каналы : 2 канала
Расположение каналов : Front: L R
Частота : 48,0 КГц
Частота кадров : 31,250 кадров/сек (1536 spf)
Метод сжатия : С потерями
Размер потока : 160 Мбайт (1%)
Заголовок : DUB (Хлопушка)
Язык : Russian
Default : Да
Forced : Нет

Аудио #2
Идентификатор : 3
Формат : AC-3
Формат/Информация : Audio Coding 3
Расширение режима : CM (complete main)
Параметр Endianness формата : Big
Идентификатор кодека : A_AC3
Продолжительность : 1 ч. 56 м.
Вид битрейта : Постоянный
Битрейт : 448 Кбит/сек
Каналы : 6 каналов
Расположение каналов : Front: L C R, Side: L R, LFE
Частота : 48,0 КГц
Частота кадров : 31,250 кадров/сек (1536 spf)
Метод сжатия : С потерями
Размер потока : 374 Мбайт (2%)
Заголовок : MVO (R5)
Язык : Russian
Default : Нет
Forced : Нет

Аудио #3
Идентификатор : 4
Формат : DTS
Формат/Информация : Digital Theater Systems
Режим : 16
Параметр Endianness формата : Big
Идентификатор кодека : A_DTS
Продолжительность : 1 ч. 56 м.
Вид битрейта : Постоянный
Битрейт : 1509 Кбит/сек
Каналы : 6 каналов
Расположение каналов : Front: L C R, Side: L R, LFE
Частота : 48,0 КГц
Частота кадров : 93,750 кадра/сек (512 spf)
Битовая глубина : 24 бит
Метод сжатия : С потерями
Размер потока : 1,23 Гбайт (6%)
Заголовок : MVO (Карусель)
Язык : Russian
Default : Нет
Forced : Нет

Аудио #4
Идентификатор : 5
Формат : AC-3
Формат/Информация : Audio Coding 3
Профиль формата : Dolby Digital
Расширение режима : CM (complete main)
Параметр Endianness формата : Big
Идентификатор кодека : A_AC3
Продолжительность : 1 ч. 56 м.
Вид битрейта : Постоянный
Битрейт : 192 Кбит/сек
Каналы : 2 канала
Расположение каналов : Front: L R
Частота : 48,0 КГц
Частота кадров : 31,250 кадров/сек (1536 spf)
Метод сжатия : С потерями
Размер потока : 160 Мбайт (1%)
Заголовок : AVO (Леонид Володарский)
Язык : Russian
Default : Нет
Forced : Нет

Аудио #5
Идентификатор : 6
Формат : DTS
Формат/Информация : Digital Theater Systems
Режим : 16
Параметр Endianness формата : Big
Идентификатор кодека : A_DTS
Продолжительность : 1 ч. 56 м.
Вид битрейта : Постоянный
Битрейт : 1509 Кбит/сек
Каналы : 6 каналов
Расположение каналов : Front: L C R, Side: L R, LFE
Частота : 48,0 КГц
Частота кадров : 93,750 кадра/сек (512 spf)
Битовая глубина : 24 бит
Метод сжатия : С потерями
Размер потока : 1,23 Гбайт (6%)
Заголовок : AVO (Вартан Дохалов)
Язык : Russian
Default : Нет
Forced : Нет

Аудио #6
Идентификатор : 7
Формат : DTS
Формат/Информация : Digital Theater Systems
Режим : 16
Параметр Endianness формата : Big
Идентификатор кодека : A_DTS
Продолжительность : 1 ч. 56 м.
Вид битрейта : Постоянный
Битрейт : 1509 Кбит/сек
Каналы : 6 каналов
Расположение каналов : Front: L C R, Side: L R, LFE
Частота : 48,0 КГц
Частота кадров : 93,750 кадра/сек (512 spf)
Битовая глубина : 24 бит
Метод сжатия : С потерями
Размер потока : 1,23 Гбайт (6%)
Заголовок : AVO (Юрий Живов)
Язык : Russian
Default : Нет
Forced : Нет

Аудио #7
Идентификатор : 8
Формат : AC-3
Формат/Информация : Audio Coding 3
Профиль формата : Dolby Digital
Расширение режима : CM (complete main)
Параметр Endianness формата : Big
Идентификатор кодека : A_AC3
Продолжительность : 1 ч. 56 м.
Вид битрейта : Постоянный
Битрейт : 192 Кбит/сек
Каналы : 2 канала
Расположение каналов : Front: L R
Частота : 48,0 КГц
Частота кадров : 31,250 кадров/сек (1536 spf)
Метод сжатия : С потерями
Размер потока : 160 Мбайт (1%)
Заголовок : AVO (Алексей Михалёв)
Язык : Russian
Default : Нет
Forced : Нет

Аудио #8
Идентификатор : 9
Формат : DTS
Формат/Информация : Digital Theater Systems
Режим : 16
Параметр Endianness формата : Big
Идентификатор кодека : A_DTS
Продолжительность : 1 ч. 56 м.
Вид битрейта : Постоянный
Битрейт : 1509 Кбит/сек
Каналы : 6 каналов
Расположение каналов : Front: L C R, Side: L R, LFE
Частота : 48,0 КГц
Частота кадров : 93,750 кадра/сек (512 spf)
Битовая глубина : 24 бит
Метод сжатия : С потерями
Размер потока : 1,23 Гбайт (6%)
Заголовок : original
Язык : English
Default : Нет
Forced : Нет

Текст #1
Идентификатор : 10
Формат : UTF-8
Идентификатор кодека : S_TEXT/UTF8
Идентификатор кодека/Информация : UTF-8 Plain Text
Продолжительность : 1 ч. 48 м.
Битрейт : 39 бит/сек
Count of elements : 811
Размер потока : 31,4 Кбайт (0%)
Заголовок : русские
Язык : Russian
Default : Нет
Forced : Нет

Текст #2
Идентификатор : 11
Формат : UTF-8
Идентификатор кодека : S_TEXT/UTF8
Идентификатор кодека/Информация : UTF-8 Plain Text
Продолжительность : 1 ч. 53 м.
Битрейт : 33 бит/сек
Count of elements : 1020
Размер потока : 28,3 Кбайт (0%)
Заголовок : английские (для слабослышащих)
Язык : English
Default : Нет
Forced : Нет

Меню
00:00:00.000 : :00:00:00.000
00:04:59.257 : :00:04:59.257
00:15:27.510 : :00:15:27.510
00:19:20.659 : :00:19:20.659
00:29:24.429 : :00:29:24.429
00:36:39.114 : :00:36:39.114
00:44:54.901 : :00:44:54.901
00:54:42.112 : :00:54:42.112
01:01:10.792 : :01:01:10.792
01:13:37.705 : :01:13:37.705
01:19:21.548 : :01:19:21.548
01:23:42.726 : :01:23:42.726
01:31:53.299 : :01:31:53.299
01:41:40.553 : :01:41:40.553
01:53:17.207 : :01:53:17.207

МОИ РЕЛИЗЫ
ВКОНТАКТЕ
pb.wtf



Скачать 9 1 через торрент http://s020.radikal.ru/i710/1611/f6/8e42a83382d6.jpg Скачать фильм 9 1через торрент бесплантно в хорошем качестве Описание: Когда Элизабет встречает Джона, её уравновешенность улетучивается. Изощрённый соблазнитель втягивает её в эффектную любовную ... 10 10 4
Info! Золотая раздача, скачанное не засчитывается.
Торрент: Зарегистрирован [2016-11-05 07:09] · скачан: 21 раз
Статус: √ проверено
Размер: 20.1 GB
Как cкачать? Как скачать 9 1 через торрент | qTorrent

% Раздел Тема Автор DL S | L
Фильмы [HD 720p, 1080p] (Хороший звук DUB, MVO) [ 7.46 GB ] 9 1/2 недель / Nine 1/2 Weeks [1985 BDRip 720p by msltel] DUB 2 x MVO 4 x AVO msltel Скачать
1 | 0

28-11-2019 20:33  

Отключить всю рекламу на сайте

14-11-2016 13:03 9 1 Скачать торрент  

старушка КИМ ещё в силе...хотя уже множество красоток есть.......фильм неплох в своё время.............спасибо за раздачуpb.wtf



    Дорогой пользователь! Огромная просьба, поблагодарите релизера, оцените раздачу и оставьте свои комментарий, если Вы скачали 9 1 через торрент бесплатно! Внесите свою лепту в развитие PiratBit!
    Комментировать посты могут только пользователи прошедшие не сложную регистрацию
    Показать сообщения:    

    9 1 через торрент
    Скачать бесплатно 9 1
    9 1 скачать торрент
    9 1 смотреть онлайн
    Cкачать фильм 9 1 бесплатно
    9 1 скачать торрент в хорошем качестве
    9 1 смотреть онлайн бесплатно в хорошем качестве


    Вы не можете начинать темы
    Вы не можете отвечать на сообщения
    Вы не можете редактировать свои сообщения
    Вы не можете удалять свои сообщения
    Вы не можете голосовать в опросах
    Вы не можете прикреплять файлы к сообщениям
    Вы можете скачивать файлы