2 сезон

iTunes

MVO

1

2 сезон

iTunes

iTunes

1 сезон

RePack

30

Новинка

ВАЖНО

ИГРА 18+

pack

RePack

MK11
pack

Легкие деньги

RePack

jed

RePack

fifa19

RePack

RDR2

RePack

NEED FOR SPEED™ PAYBACK

4 сезон

9 сезон

Бесстыжие 9 сезон

Все сериалы

все сериалы на PB.wtf

RePack

FAR CRY 5

Anonymous, добрый день, мы не успеваем собрать деньги на оплату серверов за декабрь и январь, помогите нам пожалуйста в это трудное время. В качестве благодарности мы отключим Вам всю рекламу на сайте (укажите свой ник в строку Ваше имя)!

×
  
Magnet ссылка

Служанка / Agasshi (Пак Чхан-ук) [2016, драма, мелодрама, HDRip, Дублированный [iTunes] pb.wtf

Служанка через торрент pb.wtf

Раздают: 1 [ 0 KB/s ]
Размер: 1.37 GB | Добавлен: 4 года 2 мес. назад | Торрент скачан:396 раз
Скачать  

05-11-2016 14:30 Служанка Скачать торрент  

Служанка / Agasshi
««Не доверяй никому»»


Год выпуска: 2016
Страна: Корея Южная
Жанр: драма, мелодрама

Продолжительность: 02:19:05
Перевод: Дублированный [iTunes]
Режиссер: Пак Чхан-ук
В ролях:

Ким Мин-хи (Lady Hideko), Ким Тхэ-ри (Sook-hee), Ха Джон-у (Count Fujiwara), Чо Джин-ун (Uncle Kouzuki), Ким Хэ-сук (Sasaki), Мун Со-ри (Aunt), Ли Ён-нё (Bok-soon), Ли Дон-хви (Mr. Gu), Ю Мин-чхэ (Kkeut-dan-i), Чо Ын-хён (Young Hideko), Хан Ха-на (Junko), Ли Гю-джон (Maid 1)
Описание:
30-е годы прошлого столетия. Корея, оккупированная японцами. Мошенник по прозвищу Граф предлагает бедной девушке Соке поучаствовать в деле, обещая солидный заработок. План афериста следующий. В огромном поместье, не общаясь с внешним миром, живет богатая японка Хидеко. Однако ее дядя, контролирующий каждый шаг девушки, изредка устраивает приемы для местных аристократов. Граф рассчитывает очаровать Хидеко, сбежать с ней в Японию, жениться, объявить ее сумасшедшей, упечь в дурдом и завладеть всем богатством. А Соке должна ему помочь, нанявшись в услужение к Хидеко. Что она и сделала. Но внезапно идеальный замысел Графа оказался под угрозой.
Мировая премьера: 14 мая 2016

Качество: HDRip
Формат: AVI
Видео: XviD, 720x304 (2.35:1), 1012 kbps, 25 fps, 0.185 bpp
Аудио: AC3 / 5.1 / 48 kHz / 384 kbps /

Video
ID : 0
Format : MPEG-4 Visual
Format profile : Advanced Simple@L5
Format settings, BVOP : 2
Format settings, QPel : No
Format settings, GMC : No warppoints
Format settings, Matrix : Default (MPEG)
Codec ID : XVID
Codec ID/Hint : XviD
Duration : 2 h 19 min
Bit rate : 1 013 kb/s
Width : 720 pixels
Height : 304 pixels
Display aspect ratio : 2.35:1
Frame rate : 25.000 FPS
Color space : YUV
Chroma subsampling : 4:2:0
Bit depth : 8 bits
Scan type : Progressive
Compression mode : Lossy
Bits/(Pixel*Frame) : 0.185
Stream size : 1 008 MiB (72%)
Writing library : XviD 1.2.1 (UTC 2008-12-04)

Audio
ID : 1
Format : AC-3
Format/Info : Audio Coding 3
Mode extension : CM (complete main)
Format settings, Endianness : Big
Codec ID : 2000
Duration : 2 h 19 min
Bit rate mode : Constant
Bit rate : 384 kb/s
Channel(s) : 6 channels
Channel positions : Front: L C R, Side: L R, LFE
Sampling rate : 48.0 kHz
Frame rate : 31.250 FPS (1536 spf)
Compression mode : Lossy
Stream size : 382 MiB (27%)
Alignment : Split accross interleaves
Interleave, duration : 40 ms (1.00 video frame)
Interleave, preload duration : 500 ms

© Оформление by White Smoke pb.wtf



Скачать Служанка через торрент http://i4.imageban.ru/out/2016/11/05/a0dfcce6ebc675a3d94b14857121c920.jpg Скачать фильм Служанка через торрент бесплантно в хорошем качестве Описание: 30-е годы прошлого столетия. Корея, оккупированная японцами. Мошенник по прозвищу Граф предлагает бедной девушке Соке ... 10 10 9
Info! Золотая раздача, скачанное не засчитывается.
Торрент: Зарегистрирован [2016-11-05 14:30] · скачан: 396 раз
Статус: √ проверено
Размер: 1.37 GB
Как cкачать? Как скачать Служанка через торрент | UTorrent

% Раздел Тема Автор DL S | L
Азиатские фильмы [ 5.43 GB ] Служанка / Agasshi [2016 BDRip 720p by msltel] DUB msltel Скачать
1 | 0
Азиатские фильмы [ 15.61 GB ] Служанка / Agasshi [2016 BDRip 1080p by msltel] DUB msltel Скачать
1 | 0
Фильмы (Blu-ray, BD-Remux, HDDVD) [ 21.85 GB ] Служанка / Agasshi / Ah-ga-ssi [2016 Blu-Ray Remux] [1080i] killermax2013 Скачать
1 | 0
Азиатские фильмы [ 1.46 GB ] Служанка / Agasshi [2016 BDRip] DUB / Ворон Скачать
1 | 0

28-11-2019 20:33  

Отключить всю рекламу на сайте

    Дорогой пользователь! Огромная просьба, поблагодарите релизера, оцените раздачу и оставьте свои комментарий, если Вы скачали Служанка через торрент бесплатно! Внесите свою лепту в развитие PiratBit!
    Комментировать посты могут только пользователи прошедшие не сложную регистрацию
    Показать сообщения:    

    Служанка через торрент
    Скачать бесплатно Служанка
    Служанка скачать торрент
    Служанка смотреть онлайн
    Cкачать фильм Служанка бесплатно
    Служанка скачать торрент в хорошем качестве
    Служанка смотреть онлайн бесплатно в хорошем качестве


    Вы не можете начинать темы
    Вы не можете отвечать на сообщения
    Вы не можете редактировать свои сообщения
    Вы не можете удалять свои сообщения
    Вы не можете голосовать в опросах
    Вы не можете прикреплять файлы к сообщениям
    Вы можете скачивать файлы