Ссылка на приватное зеркало нашего сайта всего за 1$. Внимание количество ограничено!!!

2 сезон

iTunes

1 сезон

1

iTunes

iTunes

iTunes

1 сезон

RePack

30

ИГРА 18+

pack

ВАЖНО

!!Акция!!

Alien_RageХит недели

RePack

MK11
pack

Забери бонус

RePack

jed

!!Акция!!

Alien_Rage

RePack

fifa19

RePack

Assassins Creed: Odyssey

RePack

NEED FOR SPEED™ PAYBACK

4 сезон

9 сезон

Бесстыжие 9 сезон

Все сериалы

все сериалы на PB.wtf

RePack

FAR CRY 5
  

Люсия и секс / Lucia y el sexo (Хулио Медем) [2001, драма, мелодрама, BDRip 720p by msltel] MVO pb.wtf

Люсия и секс через торрент pb.wtf

Размер: 5.26 GB | Добавлен: 3 года 11 мес. назад | Торрент скачан:177 раз
Скачать  

06-11-2016 07:55 Люсия и секс Скачать торрент  

Название: Люсия и секс
Оригинальное название: Lucia y el sexo
Год выпуска: 2001
Страна: Испания, Франция
Жанр: драма, мелодрама
Продолжительность: 02:07:51
Перевод: профессиональный двухголосый

Режиссёр: Хулио Медем

В ролях: Паз Вега, Тристан Уллоа, Найва Нимри, Дэниэл Фрайр, Елена Анайя, Хавьер Камара, Сильвия Лланос, Диана Суарес, Дэвид Булнес, Арсенио Леон, Хавьер Коромина, Мария Алварез, Хуан Фернандес

Описание: Люсия, молодая официантка из ресторана в центре Мадрида, уезжает на тихий и спокойный остров в Средиземном море после того, как узнает об исчезновении своего возлюбленного, с которым прожила шесть лет. Там, среди восхитительной природы, свежего воздуха и под ярким солнцем, Люсия начинает узнавать самые тёмные уголки её прошлого, проведённого с любимым, как если бы это были запрещённые отрывки из романа, которые автор, находясь вдалеке, ей позволяет теперь прочитать...



Качество: BDRip 720p Сравнение с исходником
Формат: MKV
Видео: MPEG-4 AVC, 4996 Кбит/с, 1280x544, 23,976 кадра/с
Аудио 1: русский, AC3, 448 kbps, 6 ch, 48 kHz [профессиональный многоголосый, R5]
Аудио 2: испанский, AC3, 448 kbps, 6 ch, 48 kHz [оригинал]
Субтитры 1: русские
Субтитры 2: английские
Имеются неименованные главы/чаптеры.
Общее
Уникальный идентификатор : 254331124620444389923927173840302021152 (0xBF5664931A779BD180D38803EEE89A20)
Полное имя : D:\Video\Люсия и секс.2001.BDRip.720p by msltel.mkv
Формат : Matroska
Версия формата : Version 4 / Version 2
Размер файла : 5,26 Гбайт
Продолжительность : 2 ч. 7 м.
Общий поток : 5895 Кбит/сек
Название фильма : Rip by msltel
Дата кодирования : UTC 2016-11-06 03:01:45
Программа кодирования : mkvmerge v8.2.0 ('World of Adventure') 64bit
Библиотека кодирования : libebml v1.3.1 + libmatroska v1.4.2

Видео
Идентификатор : 1
Формат : AVC
Формат/Информация : Advanced Video Codec
Профиль формата : High@L4.1
Параметр CABAC формата : Да
Параметр ReFrames формата : 9 кадров
Идентификатор кодека : V_MPEG4/ISO/AVC
Продолжительность : 2 ч. 7 м.
Битрейт : 4996 Кбит/сек
Ширина : 1280 пикселей
Высота : 544 пикселя
Соотношение сторон : 2,35:1
Режим частоты кадров : Постоянный
Частота кадров : 23,976 (24000/1001) кадра/сек
Цветовое пространство : YUV
Субдискретизация насыщенности : 4:2:0
Битовая глубина : 8 бит
Тип развёртки : Прогрессивная
Бит/(Пиксели*Кадры) : 0.299
Размер потока : 4,46 Гбайт (85%)
Заголовок : Rip by msltel
Библиотека кодирования : x264 core 146 r2538 121396c
Настройки программы : cabac=1 / ref=9 / deblock=1:-3:-3 / analyse=0x3:0x113 / me=umh / subme=10 / psy=1 / psy_rd=1.00:0.15 / mixed_ref=1 / me_range=32 / chroma_me=1 / trellis=2 / 8x8dct=1 / cqm=0 / deadzone=21,11 / fast_pskip=0 / chroma_qp_offset=-3 / threads=6 / lookahead_threads=1 / sliced_threads=0 / nr=0 / decimate=1 / interlaced=0 / bluray_compat=0 / constrained_intra=0 / bframes=13 / b_pyramid=2 / b_adapt=2 / b_bias=0 / direct=1 / weightb=1 / open_gop=0 / weightp=2 / keyint=230 / keyint_min=23 / scenecut=40 / intra_refresh=0 / rc_lookahead=40 / rc=crf / mbtree=0 / crf=20.5 / qcomp=0.60 / qpmin=0 / qpmax=69 / qpstep=4 / vbv_maxrate=40000 / vbv_bufsize=50000 / crf_max=0.0 / nal_hrd=none / filler=0 / ip_ratio=1.40 / pb_ratio=1.30 / aq=1:1.00
Язык : Spanish
Default : Да
Forced : Нет

Аудио #1
Идентификатор : 2
Формат : AC-3
Формат/Информация : Audio Coding 3
Расширение режима : CM (complete main)
Параметр Endianness формата : Big
Идентификатор кодека : A_AC3
Продолжительность : 2 ч. 7 м.
Вид битрейта : Постоянный
Битрейт : 448 Кбит/сек
Каналы : 6 каналов
Расположение каналов : Front: L C R, Side: L R, LFE
Частота : 48,0 КГц
Частота кадров : 31,250 кадров/сек (1536 spf)
Метод сжатия : С потерями
Размер потока : 410 Мбайт (8%)
Заголовок : MVO (R5)
Язык : Russian
Default : Да
Forced : Нет

Аудио #2
Идентификатор : 3
Формат : AC-3
Формат/Информация : Audio Coding 3
Расширение режима : CM (complete main)
Параметр Endianness формата : Big
Идентификатор кодека : A_AC3
Продолжительность : 2 ч. 7 м.
Вид битрейта : Постоянный
Битрейт : 448 Кбит/сек
Каналы : 6 каналов
Расположение каналов : Front: L C R, Side: L R, LFE
Частота : 48,0 КГц
Частота кадров : 31,250 кадров/сек (1536 spf)
Метод сжатия : С потерями
Размер потока : 410 Мбайт (8%)
Заголовок : original
Язык : Spanish
Default : Нет
Forced : Нет

Текст #1
Идентификатор : 4
Формат : UTF-8
Идентификатор кодека : S_TEXT/UTF8
Идентификатор кодека/Информация : UTF-8 Plain Text
Продолжительность : 2 ч. 2 м.
Битрейт : 64 бит/сек
Count of elements : 1209
Размер потока : 57,8 Кбайт (0%)
Заголовок : русские
Язык : Russian
Default : Нет
Forced : Нет

Текст #2
Идентификатор : 5
Формат : UTF-8
Идентификатор кодека : S_TEXT/UTF8
Идентификатор кодека/Информация : UTF-8 Plain Text
Продолжительность : 2 ч. 4 м.
Битрейт : 31 бит/сек
Count of elements : 1111
Размер потока : 29,2 Кбайт (0%)
Заголовок : английские
Язык : English
Default : Нет
Forced : Нет

Меню
00:00:00.000 : :Chapter 01
00:07:32.617 : :Chapter 02
00:12:34.753 : :Chapter 03
00:16:54.555 : :Chapter 04
00:24:52.782 : :Chapter 05
00:30:46.135 : :Chapter 06
00:33:54.574 : :Chapter 07
00:37:54.271 : :Chapter 08
00:41:55.596 : :Chapter 09
00:48:02.670 : :Chapter 10
00:54:27.847 : :Chapter 11
01:02:56.981 : :Chapter 12
01:16:02.599 : :Chapter 13
01:22:59.474 : :Chapter 14
01:31:45.500 : :Chapter 15
01:41:15.944 : :Chapter 16
01:46:01.063 : :Chapter 17
01:52:03.633 : :Chapter 18
02:00:53.663 : :Chapter 19
02:05:13.339 : :Chapter 20
02:07:51.663 : :Chapter 21

МОИ РЕЛИЗЫ
ВКОНТАКТЕ
pb.wtf



Скачать Люсия и секс через торрент http://s011.radikal.ru/i316/1611/9d/7ca64a27b941.jpg Скачать фильм Люсия и секс через торрент бесплантно в хорошем качестве Описание: Люсия, молодая официантка из ресторана в центре Мадрида, уезжает на тихий и спокойный остров в Средиземном море после того, как ... 10 10 3
Info! Золотая раздача, скачанное не засчитывается.
Торрент: Зарегистрирован [2016-11-06 07:55] · скачан: 177 раз
Статус: √ проверено
Размер: 5.26 GB
Как cкачать? Как скачать Люсия и секс через торрент | qTorrent

% Раздел Тема Автор DL S | L
Фильмы [HD 720p, 1080p] (Хороший звук DUB, MVO) [ 15.09 GB ] Люсия и секс / Lucia y el sexo [2001 BDRip 1080p by msltel] MVO R5 msltel Скачать
1 | 0

28-11-2019 20:33  

Отключить всю рекламу на сайте

    Дорогой пользователь! Огромная просьба, поблагодарите релизера, оцените раздачу и оставьте свои комментарий, если Вы скачали Люсия и секс через торрент бесплатно! Внесите свою лепту в развитие PiratBit!
    Комментировать посты могут только пользователи прошедшие не сложную регистрацию
    Показать сообщения:    

    Люсия и секс через торрент
    Скачать бесплатно Люсия и секс
    Люсия и секс скачать торрент
    Люсия и секс смотреть онлайн
    Cкачать фильм Люсия и секс бесплатно
    Люсия и секс скачать торрент в хорошем качестве
    Люсия и секс смотреть онлайн бесплатно в хорошем качестве


    Вы не можете начинать темы
    Вы не можете отвечать на сообщения
    Вы не можете редактировать свои сообщения
    Вы не можете удалять свои сообщения
    Вы не можете голосовать в опросах
    Вы не можете прикреплять файлы к сообщениям
    Вы можете скачивать файлы