2 сезон

iTunes

MVO

1

2 сезон

iTunes

iTunes

1 сезон

RePack

30

Ultimate

ВАЖНО

ИГРА 18+

pack

RePack

MK11
pack

Легкие деньги

RePack

jed

RePack

fifa19

RePack

RDR2

RePack

NEED FOR SPEED™ PAYBACK

4 сезон

9 сезон

Бесстыжие 9 сезон

Все сериалы

все сериалы на PB.wtf

RePack

FAR CRY 5

Anonymous, доброй ночи, мы не успеваем собрать деньги на оплату серверов за декабрь и январь, помогите нам пожалуйста в это трудное время. В качестве благодарности мы отключим Вам всю рекламу на сайте (укажите свой ник в строку Ваше имя)!

×
  
Magnet ссылка

Antonia - Marabou [2013 г., Pop, Blu-Ray Remux 1080p] pb.wtf

Antonia - Marabou через торрент pb.wtf

Размер: 439 MB | Добавлен: 4 года 2 мес. назад | Торрент скачан:28 раз
Скачать  

06-11-2016 08:56 Antonia - Marabou Скачать торрент  

Antonia - Marabou
Год выпуска: 2013
Жанр: Pop
Продолжительность: 00:03:46
Качество:Blu-Ray Remux 1080p
Формат: MPEG4
Видео кодек: AVC
Аудио кодек:AAC
Видео: MPEG4 AVC, 1920x1080, 25,000 fps, 14,1 Mbit / s
Аудио#1:PCM, 48,0 kHz, 2 ch, 1536 kbps
Общее
Идентификатор : 1 (0x1)
Полное имя : Antonia - Marabou.m2ts
Формат : BDAV
Формат/Информация : Blu-ray Video
Размер файла : 439 Мбайт
Продолжительность : 3 м. 46 с.
Режим общего битрейта : Переменный
Общий поток : 16,2 Мбит/сек
Максимальный общий битрейт : 35,5 Мбит/сек

Видео
Идентификатор : 4113 (0x1011)
Идентификатор меню : 1 (0x1)
Формат : AVC
Формат/Информация : Advanced Video Codec
Профиль формата : High@L4.1
Параметр CABAC формата : Да
Параметр ReFrames формата : 4 кадра
Идентификатор кодека : 27
Продолжительность : 3 м. 46 с.
Вид битрейта : Переменный
Битрейт : 14,1 Мбит/сек
Максимальный битрейт : 40,0 Мбит/сек
Ширина : 1920 пикселей
Высота : 1080 пикселей
Соотношение сторон : 16:9
Частота кадров : 25,000 кадров/сек
Цветовое пространство : YUV
Субдискретизация насыщенности : 4:2:0
Битовая глубина : 8 бит
Тип развёртки : Прогрессивная
Бит/(Пиксели*Кадры) : 0.271
Размер потока : 380 Мбайт (87%)
Язык : English

Аудио
Идентификатор : 4352 (0x1100)
Идентификатор меню : 1 (0x1)
Формат : PCM
Параметр Endianness формата : Big
Параметр Sign формата : Signed
Режим смешивания : Blu-ray
Идентификатор кодека : 128
Продолжительность : 3 м. 35 с.
Вид битрейта : Постоянный
Битрейт : 1536 Кбит/сек
Каналы : 2 канала
Расположение каналов : Front: L R
Частота : 48,0 КГц
Битовая глубина : 16 бит
Размер потока : 39,4 Мбайт (9%)
pb.wtf



Скачать Antonia - Marabou через торрент http://funkyimg.com/i/2jfby.jpg Скачать фильм Antonia - Marabou [2013 г., Pop, Blu-Ray Remux 1080p]через торрент бесплантно в хорошем качестве Год выпуска: 2013Жанр: PopПродолжительность: ... 1 10 1
Торрент: Зарегистрирован [2016-11-06 08:56] · скачан: 28 раз
Статус: √ проверено
Размер: 439 MB
Как cкачать? Как скачать Antonia - Marabou через торрент | UTorrent

28-11-2019 20:33  

Отключить всю рекламу на сайте

    Дорогой пользователь! Огромная просьба, поблагодарите релизера, оцените раздачу и оставьте свои комментарий, если Вы скачали Antonia - Marabou через торрент бесплатно! Внесите свою лепту в развитие PiratBit!
    Комментировать посты могут только пользователи прошедшие не сложную регистрацию
    Показать сообщения:    

    Antonia - Marabou через торрент
    Скачать бесплатно Antonia - Marabou
    Antonia - Marabou скачать торрент
    Antonia - Marabou смотреть онлайн
    Cкачать фильм Antonia - Marabou бесплатно
    Antonia - Marabou скачать торрент в хорошем качестве
    Antonia - Marabou смотреть онлайн бесплатно в хорошем качестве


    Вы не можете начинать темы
    Вы не можете отвечать на сообщения
    Вы не можете редактировать свои сообщения
    Вы не можете удалять свои сообщения
    Вы не можете голосовать в опросах
    Вы не можете прикреплять файлы к сообщениям
    Вы можете скачивать файлы