Ссылка на приватное зеркало нашего сайта всего за 1$. Внимание количество ограничено!!!

2 сезон

iTunes

1 сезон

1

iTunes

iTunes

iTunes

1 сезон

RePack

30

ИГРА 18+

pack

ВАЖНО

!!Акция!!

Alien_RageХит недели

RePack

MK11
pack

Забери бонус

RePack

jed

!!Акция!!

Alien_Rage

RePack

fifa19

RePack

Assassins Creed: Odyssey

RePack

NEED FOR SPEED™ PAYBACK

4 сезон

9 сезон

Бесстыжие 9 сезон

Все сериалы

все сериалы на PB.wtf

RePack

FAR CRY 5
  

Каменное сердце / Серии: 1-4 из 4 (Александр Аравин) [2016, драма, детектив, SATRip-AVC] pb.wtf

Каменное сердце через торрент pb.wtf

Размер: 2.4 GB | Добавлен: 3 года 11 мес. назад | Торрент скачан:88 раз
Скачать  

06-11-2016 11:40 Каменное сердце Скачать торрент  

Каменное сердце


Год выпуска: 2016
Производство: Россия, Кинокомпания "Марс Медиа Энтертеймент"
Жанр: драма,детектив
Продолжительность: ~00:46:00
Субтитры: нет



Режиссёр: Александр Аравин



В ролях: Екатерина Волкова, Владимир Кошевой, Саша Вельнер, Екатерина Долгова, Наталья Гриншпун, Марта Дроздова, Ирина Бякова, Антон Афанасьев, Александр Андриенко

Описание: Галина возглавляет редакцию крупной газеты. Пережив тяжелый развод, она перестает верить в существование любви, – в ее жизни остается только работа. Но когда ее издание публикует сенсационное расследование о махинациях бизнесмена Вячеслава Андреева, карьера тоже может вот-вот рухнуть: один из источников информации оказывается непроверенным, и Андреев подает иск о клевете. Чтобы избежать суда и спасти репутацию, Галина решает найти компромат на бизнесмена.Она отправляется в деревню, чтобы разыскать важного свидетеля – врача Михаила Леонтьева. По всей вероятности, именно по вине Андреева погибла жена доктора. Михаил живет уединенно и отказывается общаться с журналистами. Но постепенно Галина находит с ним общий язык, а после начинает рассматривать Леонтьева не только как источник информации, но и как интересного мужчину. В итоге, Михаил не только помогает Галине в ее расследовании, но и растапливает ее «каменное сердце».








Релиз от:




Качество: SATRip-AVC
Формат: MKV
Видео кодек: H.264
Аудио кодек: AC3
Видео: MPEG4 Video (H264), 720x400, 25fps,1600 Kbps,bit/pixel 0.222
Аудио: AC3 48000Hz, stereo, 192kbps,2 ch


Общее
Уникальный идентификатор : 236789115696456843268556749646637472805 (0xB223ECC27A04E974917D3D2C32369C25)
Полное имя : F:\Каменное сердце\01 серия_Каменное сердце_rip by_Aleksan55.mkv
Формат : Matroska
Версия формата : Version 2
Размер файла : 594 Мбайт
Продолжительность : 46 м.
Общий поток : 1794 Кбит/сек
Дата кодирования : UTC 2016-11-05 14:39:02
Программа кодирования : mkvmerge v7.8.0 ('River Man') 32bit built on Apr 3 2015 12:11:22
Библиотека кодирования : libebml v1.3.1 + libmatroska v1.4.2

Видео
Идентификатор : 1
Формат : AVC
Формат/Информация : Advanced Video Codec
Профиль формата : High@L4.1
Параметр CABAC формата : Да
Параметр ReFrames формата : 14 кадров
Идентификатор кодека : V_MPEG4/ISO/AVC
Продолжительность : 46 м.
Битрейт : 1600 Кбит/сек
Ширина : 720 пикселей
Высота : 400 пикселей
Соотношение сторон : 16:9
Режим частоты кадров : Постоянный
Частота кадров : 25,000 кадров/сек
Цветовое пространство : YUV
Субдискретизация насыщенности : 4:2:0
Битовая глубина : 8 бит
Тип развёртки : Прогрессивная
Бит/(Пиксели*Кадры) : 0.222
Размер потока : 519 Мбайт (87%)
Библиотека кодирования : x264 core 148 r2638 7599210
Настройки программы : cabac=1 / ref=14 / deblock=1:-1:-1 / analyse=0x3:0x133 / me=umh / subme=10 / psy=1 / psy_rd=1.00:0.00 / mixed_ref=0 / me_range=32 / chroma_me=1 / trellis=2 / 8x8dct=1 / cqm=0 / deadzone=21,11 / fast_pskip=0 / chroma_qp_offset=-2 / threads=3 / lookahead_threads=4 / sliced_threads=0 / nr=0 / decimate=0 / interlaced=0 / bluray_compat=0 / constrained_intra=0 / bframes=14 / b_pyramid=2 / b_adapt=2 / b_bias=0 / direct=3 / weightb=1 / open_gop=0 / weightp=2 / keyint=250 / keyint_min=25 / scenecut=40 / intra_refresh=0 / rc_lookahead=60 / rc=2pass / mbtree=1 / bitrate=1600 / ratetol=1.0 / qcomp=0.80 / qpmin=0 / qpmax=40 / qpstep=4 / cplxblur=20.0 / qblur=0.5 / ip_ratio=1.40 / aq=1:1.20
Default : Да
Forced : Нет
Цветовой диапазон : Limited
Основные цвета : BT.601 PAL
Характеристики трансфера : BT.470 System B, BT.470 System G
Коэффициенты матрицы : BT.601

Аудио
Идентификатор : 2
Формат : AC-3
Формат/Информация : Audio Coding 3
Расширение режима : CM (complete main)
Параметр Endianness формата : Big
Идентификатор кодека : A_AC3
Продолжительность : 46 м.
Вид битрейта : Постоянный
Битрейт : 192 Кбит/сек
Каналы : 2 канала
Расположение каналов : Front: L R
Частота : 48,0 КГц
Метод сжатия : С потерями
Размер потока : 63,6 Мбайт (11%)
Default : Да
Forced : Нет
Рекламы нет.pb.wtf



Скачать Каменное сердце через торрент http://s019.radikal.ru/i614/1611/58/cfde6cb03e21.jpg Скачать фильм Каменное сердце через торрент бесплантно в хорошем качестве Описание: Галина возглавляет редакцию крупной газеты. Пережив тяжелый развод, она перестает верить в существование любви, – в ее жизни ... 7.7 10 7
Торрент: Зарегистрирован [2016-11-06 12:16] · скачан: 88 раз
Статус: √ проверено
Размер: 2.4 GB
Как cкачать? Как скачать Каменное сердце через торрент | qTorrent

28-11-2019 20:33  

Отключить всю рекламу на сайте

    Дорогой пользователь! Огромная просьба, поблагодарите релизера, оцените раздачу и оставьте свои комментарий, если Вы скачали Каменное сердце через торрент бесплатно! Внесите свою лепту в развитие PiratBit!
    Комментировать посты могут только пользователи прошедшие не сложную регистрацию
    Показать сообщения:    

    Каменное сердце через торрент
    Скачать бесплатно Каменное сердце
    Каменное сердце скачать торрент
    Каменное сердце смотреть онлайн
    Cкачать фильм Каменное сердце бесплатно
    Каменное сердце скачать торрент в хорошем качестве
    Каменное сердце смотреть онлайн бесплатно в хорошем качестве


    Вы не можете начинать темы
    Вы не можете отвечать на сообщения
    Вы не можете редактировать свои сообщения
    Вы не можете удалять свои сообщения
    Вы не можете голосовать в опросах
    Вы не можете прикреплять файлы к сообщениям
    Вы можете скачивать файлы