Ссылка на приватное зеркало нашего сайта всего за 1$. Внимание количество ограничено!!!

2 сезон

iTunes

1 сезон

1

2 сезон

2 сезон

iTunes

1 сезон

RePack

30

Новинка

ВАЖНО

ИГРА 18+

pack

RePack

MK11
pack

Забери бонус

RePack

jed

!!Акция!!

Alien_Rage

RePack

fifa19

RePack

Assassins Creed: Odyssey

RePack

NEED FOR SPEED™ PAYBACK

4 сезон

9 сезон

Бесстыжие 9 сезон

Все сериалы

все сериалы на PB.wtf

RePack

FAR CRY 5
  

Мир Дикого запада / Westworld / Сезон: 1 / Серии: 1-5 (10) (Джонатан Нолан, Джонни Кэмпбелл, Ричард Дж. Льюис) [2016, фантастика, триллер, вестерн, HDTV 1080p] [Dub] (Kravec) + 3x[MVO] (Jaskier, NewStudio, Omikron) + [DVO] (Кубик в Кубе) pb.wtf

Мир Дикого запада через торрент pb.wtf

Размер: 29.05 GB | Добавлен: 4 года назад | Торрент скачан:99 раз
Скачать  

06-11-2016 19:33 Мир Дикого запада Скачать торрент  


Мир Дикого Запада / Westworld


Год выпуска: 2016 г.
Производство: США
Жанр: фантастика, триллер, вестерн
Продолжительность: 5x ~01:00:00
Перевод #1: Профессиональный (полное дублирование) [Kravec]
Перевод #2: Профессиональный (многоголосый, закадровый) [Jaskier]
Перевод #3: Профессиональный (многоголосый, закадровый) [NewStudio]
Перевод #4: Профессиональный (двухголосый, закадровый) [Кубик в Кубе]
Перевод #5: Профессиональный (многоголосый, закадровый) [Omikron]
Оригинальный аудиопоток: английский

Режиссер: Джонатан Нолан / Jonathan Nolan, Джонни Кэмпбелл / Jonny Campbell, Ричард Дж. Льюис / Richard J. Lewis

В ролях: Энтони Хопкинс, Эван Рэйчел Вуд, Эд Харрис, Джеймс Марсден, Тэнди Ньютон, Джеффри Райт, Родриго Санторо, Шеннон Мари Вудворд, Ингрид Больсё Бердаль, Саймон Куотерман

Описание: В футуристическом парке развлечений андроиды на фоне исторических декораций становятся рабами людей, выполняя рутинные задания, пока в один момент сбой в программе не превращает их в опасных убийц.




Качество видео: HDTV
Контейнер: MKV
Стандарт разрешения: 1080p
Видео кодек: H.264/AVC
Аудио кодек: AC3
Видео: AVC, 1920x1078, ~10000 kbps avg, 23.976 fps,
Аудио #1: Russian: 48 kHz, AC3, 3/2 (L,C,R,l,r) LFE ch, ~384.00 kbps avg |Дубляж, Kravec|
Аудио #2: Russian: 48 kHz, AC3, 3/2 (L,C,R,l,r) LFE ch, ~384.00 kbps avg |Многоголосый закадровый, Jaskier|
Аудио #3: Russian: 48 kHz, AC3, 3/2 (L,C,R,l,r) LFE ch, ~384.00 kbps avg |Многоголосый закадровый, NewStudio|
Аудио #4: Russian: 48 kHz, AC3, 3/2 (L,C,R,l,r) LFE ch, ~384.00 kbps avg |Двухголосый закадровый, Кубик в Кубе|
Аудио #5: Ukrainian: 48 kHz, AC3, 3/2 (L,C,R,l,r) LFE ch, ~384.00 kbps avg |Многоголосый закадровый, Omikron|
Аудио #6: English: 48 kHz, AC3, 3/2 (L,C,R,l,r) LFE ch, ~384.00 kbps avg
Cубтитры: Russian, English
Episode 01: The Original / Обновление
Episode 02: Chestnut / Избитый сюжет
Episode 03: The Stray / Бродяга
Episode 04: Dissonance Theory / Теория Диссонанса
Episode 05: Contrapasso / Контрапассо
Episode 06: The Adversary / Противник
Episode 07: Trompe L'Oeil
Episode 08: Trace Decay
Episode 09: The Well-Tempered Clavier
Episode 10: The Bicameral Mind

Код:

Format                      : Matroska
Format version              : Version 4 / Version 2
File size                   : 5.00 GiB
Duration                    : 58mn 32s
Overall bit rate            : 12.2 Mbps
Movie name                  : Westworld 1x03: The Stray
Encoded date                : UTC 2016-10-25 21:53:20
Writing application         : mkvmerge v9.5.0 ('Quiet Fire') 64bit
Writing library             : libebml v1.3.4   libmatroska v1.4.5
DURATION                    : 00:57:20.852000000
NUMBER_OF_FRAMES            : 819
NUMBER_OF_BYTES             : 25393
_STATISTICS_WRITING_APP     : mkvmerge v9.5.0 ('Quiet Fire') 64bit
_STATISTICS_WRITING_DATE_UT : 2016-10-25 21:53:20
_STATISTICS_TAGS            : BPS DURATION NUMBER_OF_FRAMES NUMBER_OF_BYTES
Video
ID                          : 1
Format                      : AVC
Format/Info                 : Advanced Video Codec
Format profile              : High@L4.1
Format settings, CABAC      : Yes
Format settings, ReFrames   : 4 frames
Codec ID                    : V_MPEG4/ISO/AVC
Duration                    : 58mn 32s
Bit rate                    : 9 679 Kbps
Width                       : 1 920 pixels
Height                      : 1 074 pixels
Display aspect ratio        : 16:9
Frame rate mode             : Constant
Frame rate                  : 23.976 fps
Color space                 : YUV
Chroma subsampling          : 4:2:0
Bit depth                   : 8 bits
Scan type                   : Progressive
Bits/(Pixel*Frame)          : 0.196
Stream size                 : 3.96 GiB (79%)
Title                       : Westworld 1x03: The Stray
Language                    : English
Default                     : Yes
Forced                      : No
Matrix coefficients         : BT.709
Color range                 : Limited
Audio #1
ID                          : 2
Format                      : AC-3
Format/Info                 : Audio Coding 3
Mode extension              : CM (complete main)
Format settings, Endianness : Big
Codec ID                    : A_AC3
Duration                    : 58mn 32s
Bit rate mode               : Constant
Bit rate                    : 384 Kbps
Channel(s)                  : 6 channels
Channel positions           : Front: L C R, Side: L R, LFE
Sampling rate               : 48.0 KHz
Bit depth                   : 16 bits
Compression mode            : Lossy
Stream size                 : 161 MiB (3%)
Title                       : Kravec
Language                    : Russian
Default                     : Yes
Forced                      : No
Audio #2
ID                          : 3
Format                      : AC-3
Format/Info                 : Audio Coding 3
Mode extension              : CM (complete main)
Format settings, Endianness : Big
Codec ID                    : A_AC3
Duration                    : 58mn 32s
Bit rate mode               : Constant
Bit rate                    : 384 Kbps
Channel(s)                  : 6 channels
Channel positions           : Front: L C R, Side: L R, LFE
Sampling rate               : 48.0 KHz
Bit depth                   : 16 bits
Compression mode            : Lossy
Stream size                 : 161 MiB (3%)
Title                       : Jaskier
Language                    : Russian
Default                     : No
Forced                      : No
Audio #3
ID                          : 4
Format                      : AC-3
Format/Info                 : Audio Coding 3
Mode extension              : CM (complete main)
Format settings, Endianness : Big
Codec ID                    : A_AC3
Duration                    : 58mn 32s
Bit rate mode               : Constant
Bit rate                    : 384 Kbps
Channel(s)                  : 6 channels
Channel positions           : Front: L C R, Side: L R, LFE
Sampling rate               : 48.0 KHz
Bit depth                   : 16 bits
Compression mode            : Lossy
Stream size                 : 161 MiB (3%)
Title                       : NewStudio
Language                    : Russian
Default                     : No
Forced                      : No
Audio #4
ID                          : 5
Format                      : AC-3
Format/Info                 : Audio Coding 3
Mode extension              : CM (complete main)
Format settings, Endianness : Big
Codec ID                    : A_AC3
Duration                    : 58mn 32s
Bit rate mode               : Constant
Bit rate                    : 384 Kbps
Channel(s)                  : 6 channels
Channel positions           : Front: L C R, Side: L R, LFE
Sampling rate               : 48.0 KHz
Bit depth                   : 16 bits
Compression mode            : Lossy
Stream size                 : 161 MiB (3%)
Title                       : KvK
Language                    : Russian
Default                     : No
Forced                      : No
Audio #5
ID                          : 6
Format                      : AC-3
Format/Info                 : Audio Coding 3
Mode extension              : CM (complete main)
Format settings, Endianness : Big
Codec ID                    : A_AC3
Duration                    : 58mn 32s
Bit rate mode               : Constant
Bit rate                    : 384 Kbps
Channel(s)                  : 6 channels
Channel positions           : Front: L C R, Side: L R, LFE
Sampling rate               : 48.0 KHz
Bit depth                   : 16 bits
Compression mode            : Lossy
Stream size                 : 161 MiB (3%)
Title                       : Omikron
Language                    : Ukrainian
Default                     : No
Forced                      : No
Audio #6
ID                          : 7
Format                      : AC-3
Format/Info                 : Audio Coding 3
Mode extension              : CM (complete main)
Format settings, Endianness : Big
Codec ID                    : A_AC3
Duration                    : 58mn 32s
Bit rate mode               : Constant
Bit rate                    : 384 Kbps
Channel(s)                  : 6 channels
Channel positions           : Front: L C R, Side: L R, LFE
Sampling rate               : 48.0 KHz
Bit depth                   : 16 bits
Compression mode            : Lossy
Stream size                 : 161 MiB (3%)
Language                    : English
Default                     : No
Forced                      : No
Text #1
ID                          : 8
Format                      : UTF-8
Codec ID                    : S_TEXT/UTF8
Codec ID/Info               : UTF-8 Plain Text
Language                    : Russian
Default                     : No
Forced                      : No
Text #2
ID                          : 9
Format                      : UTF-8
Codec ID                    : S_TEXT/UTF8
Codec ID/Info               : UTF-8 Plain Text
Language                    : English
Default                     : No
Forced                      : No














pb.wtf



Скачать Мир Дикого запада через торрент http://i84.fastpic.ru/big/2016/1106/da/52e06fb537a9cd6414cc6c5728d345da.jpg Скачать фильм Мир Дикого запада через торрент бесплантно в хорошем качестве Описание: В футуристическом парке развлечений андроиды на фоне исторических декораций становятся рабами людей, выполняя рутинные задания, ... 10 10 5
Info! Золотая раздача, скачанное не засчитывается.
Торрент: Зарегистрирован [2016-11-06 19:33] · скачан: 99 раз
Статус: √ проверено
Размер: 29.05 GB
Как cкачать? Как скачать Мир Дикого запада через торрент | qTorrent

% Раздел Тема Автор DL S | L
Зарубежные сериалы [ 21.69 GB ] Мир Дикого Запада / Westworld / Сезон: 3 / Серии: 1-5 из 8 [2020 WEB-DL 1080p] MVO [TVShows] bober100 Скачать
1 | 0

28-11-2019 20:33  

Отключить всю рекламу на сайте

20-11-2016 00:05 Мир Дикого запада Скачать торрент  

Спс за раздачу с шикарной озвучкой КвК!pb.wtf



15-01-2017 17:37 Мир Дикого запада Скачать торрент  

Когда ожидаются ещё 5 серий в 1080?pb.wtf



    Дорогой пользователь! Огромная просьба, поблагодарите релизера, оцените раздачу и оставьте свои комментарий, если Вы скачали Мир Дикого запада через торрент бесплатно! Внесите свою лепту в развитие PiratBit!
    Комментировать посты могут только пользователи прошедшие не сложную регистрацию
    Показать сообщения:    

    Мир Дикого запада через торрент
    Скачать бесплатно Мир Дикого запада
    Мир Дикого запада скачать торрент
    Мир Дикого запада смотреть онлайн
    Cкачать фильм Мир Дикого запада бесплатно
    Мир Дикого запада скачать торрент в хорошем качестве
    Мир Дикого запада смотреть онлайн бесплатно в хорошем качестве


    Вы не можете начинать темы
    Вы не можете отвечать на сообщения
    Вы не можете редактировать свои сообщения
    Вы не можете удалять свои сообщения
    Вы не можете голосовать в опросах
    Вы не можете прикреплять файлы к сообщениям
    Вы можете скачивать файлы