2 сезон

iTunes

MVO

1

2 сезон

iTunes

iTunes

1 сезон

RePack

30

Новинка

ВАЖНО

ИГРА 18+

pack

RePack

MK11
pack

Легкие деньги

RePack

jed

RePack

fifa19

RePack

RDR2

RePack

NEED FOR SPEED™ PAYBACK

4 сезон

9 сезон

Бесстыжие 9 сезон

Все сериалы

все сериалы на PB.wtf

RePack

FAR CRY 5

Anonymous, добрый день, мы не успеваем собрать деньги на оплату серверов за декабрь и январь, помогите нам пожалуйста в это трудное время. В качестве благодарности мы отключим Вам всю рекламу на сайте (укажите свой ник в строку Ваше имя)!

×
  
Magnet ссылка

Бойня в сестринстве / Sorority Slaughterhouse (Дэвид ДеКото) [2016, ужасы, HDRip, Любительский (одноголосый) [Ozeon] pb.wtf

Бойня в сестринстве через торрент pb.wtf

Размер: 1.46 GB | Добавлен: 4 года 2 мес. назад | Торрент скачан:169 раз
Скачать  

06-11-2016 21:24 Бойня в сестринстве Скачать торрент  

Бойня в сестринстве / Sorority Slaughterhouse


Год выпуска: 2016
Страна: США
Жанр: ужасы
Продолжительность: 01:25:05
Перевод: Любительский (одноголосый)[Ozeon]
Режиссер: Дэвид ДеКото
В ролях:

Эрик Робертс (Whitman), Джессика Моррис (Allie), Джин Луиз О’Салливан (Fawn), Kelli Seymour (Victoria), Anthony Caravella (Marcus), Brianna Joy Chomer (Kitty), Vince Hill-Bedford (Richard), Алексия Куинн (Nina)
Описание:
После того как одна из студенток расстается с ним, декан колледжа мистер Уитман кончает жизнь самоубийством. Но его душа не умирает: она переносится в тело игрушечного клоуна по имени Бобо. Теперь мистер Уитман сможет отомстить всем, кто когда-то его обидел, а особенно сексуальным красоткам из студенческого сестринства.
Мировая премьера: 31 октября 2016

Качество: HDRip
Формат: AVI
Видео: XviD, 720x400 (16:9), 2057 kbps, 23.976 fps, 0.298 bpp
Аудио №1: AC3 / 2.0 / 48 kHz / 192 kbps / 16 bit
Аудио №2: AC3 / 2.0 / 44 kHz / 192 kbps / 16 bit

Video
ID : 0
Format : MPEG-4 Visual
Format profile : Simple@L5
Format settings, BVOP : 2
Format settings, QPel : No
Format settings, GMC : No warppoints
Format settings, Matrix : Default (H.263)
Muxing mode : Packed bitstream
Codec ID : XVID
Codec ID/Hint : XviD
Duration : 1 h 25 min
Bit rate : 2 058 kb/s
Width : 720 pixels
Height : 400 pixels
Display aspect ratio : 16:9
Frame rate : 23.976 (24000/1001) FPS
Color space : YUV
Chroma subsampling : 4:2:0
Bit depth : 8 bits
Scan type : Progressive
Compression mode : Lossy
Bits/(Pixel*Frame) : 0.298
Stream size : 1.22 GiB (84%)
Writing library : XviD 67

Audio #1
ID : 1
Format : AC-3
Format/Info : Audio Coding 3
Mode extension : CM (complete main)
Format settings, Endianness : Big
Codec ID : 2000
Duration : 1 h 25 min
Bit rate mode : Constant
Bit rate : 192 kb/s
Channel(s) : 2 channels
Channel positions : Front: L R
Sampling rate : 48.0 kHz
Frame rate : 31.250 FPS (1536 spf)
Bit depth : 16 bits
Compression mode : Lossy
Stream size : 117 MiB (8%)
Alignment : Aligned on interleaves
Interleave, duration : 32 ms (0.77 video frame)

Audio #2
ID : 2
Format : AC-3
Format/Info : Audio Coding 3
Mode extension : CM (complete main)
Format settings, Endianness : Big
Codec ID : 2000
Duration : 1 h 25 min
Bit rate mode : Constant
Bit rate : 192 kb/s
Channel(s) : 2 channels
Channel positions : Front: L R
Sampling rate : 44.1 kHz
Frame rate : 28.711 FPS (1536 spf)
Bit depth : 16 bits
Compression mode : Lossy
Stream size : 117 MiB (8%)
Alignment : Aligned on interleaves
Interleave, duration : 35 ms (0.84 video frame)

© Оформление by White Smoke pb.wtf



Скачать Бойня в сестринстве через торрент http://i2.imageban.ru/out/2016/11/07/3f203ec63d045ec44c335a07452ee7f1.jpg Скачать фильм Бойня в сестринстве через торрент бесплантно в хорошем качестве Описание: После того как одна из студенток расстается с ним, декан колледжа мистер Уитман кончает жизнь самоубийством. Но его душа не ... 5.3 10 8
Торрент: Зарегистрирован [2016-11-06 21:24] · скачан: 169 раз
Статус: T временная
Размер: 1.46 GB
Как cкачать? Как скачать Бойня в сестринстве через торрент | UTorrent

28-11-2019 20:33  

Отключить всю рекламу на сайте

07-11-2016 03:55 Бойня в сестринстве Скачать торрент  

Робертс,как низко ты палpb.wtf



07-11-2016 05:17 Бойня в сестринстве Скачать торрент  

zra писал(а):

Робертс,как низко ты пал

Ну ты даешь, он давно уже в дауне. Собственно и Брюсик уже там же почти. Его пока еще только поддержит новый крепкий орешек, а так все последние фильмы он вообще на второстепенках, а Робертс уже в шлаке лет 10 наверно, если не большеpb.wtf



07-11-2016 09:51 Бойня в сестринстве Скачать торрент  

Да вам его гонорар дать вы в прямом эфире отсасывать будете,умникиюpb.wtf



07-11-2016 10:56 Бойня в сестринстве Скачать торрент  

проходите мимо это лажа причем полная лажаpb.wtf



07-11-2016 13:22 Бойня в сестринстве Скачать торрент  

тема сисек не раскрыта :-)))pb.wtf



07-11-2016 17:30 Бойня в сестринстве Скачать торрент  

zra писал(а):

Робертс,как низко ты пал

Я тоже в баааальшущем недоумении.Интересно сколько ему за это убожество заплатили?Я допускаю,что за хорошие деньги в чём угодно можно сняться,но это же такой малобюджетный примитив...Слов нет.Все последние фильмы Коли Кейджа или Брюса просто шедевры по сравнению.Неужели за ужин в ресторане работает?pb.wtf



09-11-2016 14:49 Бойня в сестринстве Скачать торрент  

MAJLOY писал(а):

тема сисек не раскрыта :-)))

+1 скрины с сиськами в студию))) pb.wtf



    Дорогой пользователь! Огромная просьба, поблагодарите релизера, оцените раздачу и оставьте свои комментарий, если Вы скачали Бойня в сестринстве через торрент бесплатно! Внесите свою лепту в развитие PiratBit!
    Комментировать посты могут только пользователи прошедшие не сложную регистрацию
    Показать сообщения:    

    Бойня в сестринстве через торрент
    Скачать бесплатно Бойня в сестринстве
    Бойня в сестринстве скачать торрент
    Бойня в сестринстве смотреть онлайн
    Cкачать фильм Бойня в сестринстве бесплатно
    Бойня в сестринстве скачать торрент в хорошем качестве
    Бойня в сестринстве смотреть онлайн бесплатно в хорошем качестве


    Вы не можете начинать темы
    Вы не можете отвечать на сообщения
    Вы не можете редактировать свои сообщения
    Вы не можете удалять свои сообщения
    Вы не можете голосовать в опросах
    Вы не можете прикреплять файлы к сообщениям
    Вы можете скачивать файлы