Ссылка на приватное зеркало нашего сайта всего за 1$. Внимание количество ограничено!!!

2 сезон

iTunes

1 сезон

1

iTunes

iTunes

iTunes

1 сезон

RePack

30

ИГРА 18+

pack

ВАЖНО

!!Акция!!

Alien_RageХит недели

RePack

MK11
pack

Забери бонус

RePack

jed

!!Акция!!

Alien_Rage

RePack

fifa19

RePack

Assassins Creed: Odyssey

RePack

NEED FOR SPEED™ PAYBACK

4 сезон

9 сезон

Бесстыжие 9 сезон

Все сериалы

все сериалы на PB.wtf

RePack

FAR CRY 5
  

И твою маму тоже / Y tu mamá también (Альфонсо Куарон) [2001, драма, мелодрама, комедия, приключения, BDRip 720p by msltel] DVO, AVO pb.wtf

И твою маму тоже через торрент pb.wtf

Размер: 5.42 GB | Добавлен: 3 года 11 мес. назад | Торрент скачан:214 раз
Скачать  

07-11-2016 06:21 И твою маму тоже Скачать торрент  

Название: И твою маму тоже
Оригинальное название: Y tu mamá también
Год выпуска: 2001
Страна: Мексика
Жанр: драма, мелодрама, комедия, приключения
Продолжительность:
Перевод: 01:45:38

Режиссёр: Альфонсо Куарон

В ролях: Марибель Верду, Диего Луна, Гаэль Гарсиа Берналь, Натан Гринбер, Вероника Ленджер, Мария Аура, Жизелль Одри, Артуро Риос, Андрес Альмейда, Диана Брашо, Эмилио Эчеваррия, Марта Аура

Описание: Двое друзей, не обременённые моральными принципами и мучимые подростковыми гормонами, ищут под жарким солнцем Мексики приключений. Ищут... и находят. Познакомившись на празднике с испанской красоткой Луизой, чье сердце безнадёжно разбито, они приглашают её отправиться в поездку на мифический пляж с романтическим названием «Небесные уста», в мир фантазий и грёз, где исполняются мечты. Луиза, решив развеяться и заодно излечить своё разбитое сердце, принимает приглашение мальчиков. Они ещё не знают самого главного…



Качество: BDRip 720p Сравнение с исходником
Формат: MKV
Видео: MPEG-4 AVC, 5614 Кбит/с, 1280x688, 24 кадра/с
Аудио 1: русский, AC3, 384 kbps, 6 ch, 48 kHz [профессиональный двухголосый, R5]
Аудио 2: русский, AC3, 448 kbps, 6 ch, 48 kHz [авторский, Юрий Сербин, вариант 1]
Аудио 3: русский, AC3, 448 kbps, 6 ch, 48 kHz [авторский, Юрий Сербин, вариант 2]
Аудио 4: испанский, AC3, 448 kbps, 6 ch, 48 kHz [оригинал]
Субтитры 1: русские
Субтитры 2: английские
Имеются неименованные главы/чаптеры.
Общее
Уникальный идентификатор : 222224769962746346840039382433064793982 (0xA72EEF132020302E9C9D9BAA9B97B77E)
Полное имя : D:\Video\И твою маму тоже.2001.BDRip.720p by msltel.mkv
Формат : Matroska
Версия формата : Version 4 / Version 2
Размер файла : 5,42 Гбайт
Продолжительность : 1 ч. 45 м.
Общий поток : 7345 Кбит/сек
Название фильма : Rip by msltel
Дата кодирования : UTC 2016-11-07 02:42:20
Программа кодирования : mkvmerge v8.2.0 ('World of Adventure') 64bit
Библиотека кодирования : libebml v1.3.1 + libmatroska v1.4.2

Видео
Идентификатор : 1
Формат : AVC
Формат/Информация : Advanced Video Codec
Профиль формата : High@L4.1
Параметр CABAC формата : Да
Параметр ReFrames формата : 9 кадров
Идентификатор кодека : V_MPEG4/ISO/AVC
Продолжительность : 1 ч. 45 м.
Битрейт : 5614 Кбит/сек
Ширина : 1280 пикселей
Высота : 688 пикселей
Соотношение сторон : 1,85:1
Режим частоты кадров : Постоянный
Частота кадров : 24,000 кадра/сек
Цветовое пространство : YUV
Субдискретизация насыщенности : 4:2:0
Битовая глубина : 8 бит
Тип развёртки : Прогрессивная
Бит/(Пиксели*Кадры) : 0.266
Размер потока : 4,14 Гбайт (76%)
Заголовок : Rip by msltel
Библиотека кодирования : x264 core 146 r2538 121396c
Настройки программы : cabac=1 / ref=9 / deblock=1:-3:-3 / analyse=0x3:0x113 / me=umh / subme=10 / psy=1 / psy_rd=1.00:0.15 / mixed_ref=1 / me_range=32 / chroma_me=1 / trellis=2 / 8x8dct=1 / cqm=0 / deadzone=21,11 / fast_pskip=0 / chroma_qp_offset=-3 / threads=6 / lookahead_threads=1 / sliced_threads=0 / nr=0 / decimate=1 / interlaced=0 / bluray_compat=0 / constrained_intra=0 / bframes=9 / b_pyramid=2 / b_adapt=2 / b_bias=0 / direct=1 / weightb=1 / open_gop=0 / weightp=2 / keyint=230 / keyint_min=23 / scenecut=40 / intra_refresh=0 / rc_lookahead=40 / rc=crf / mbtree=0 / crf=17.5 / qcomp=0.60 / qpmin=0 / qpmax=69 / qpstep=4 / vbv_maxrate=40000 / vbv_bufsize=50000 / crf_max=0.0 / nal_hrd=none / filler=0 / ip_ratio=1.40 / pb_ratio=1.30 / aq=1:1.00
Язык : English
Default : Да
Forced : Нет

Аудио #1
Идентификатор : 2
Формат : AC-3
Формат/Информация : Audio Coding 3
Расширение режима : CM (complete main)
Параметр Endianness формата : Big
Идентификатор кодека : A_AC3
Продолжительность : 1 ч. 45 м.
Вид битрейта : Постоянный
Битрейт : 384 Кбит/сек
Каналы : 6 каналов
Расположение каналов : Front: L C R, Side: L R, LFE
Частота : 48,0 КГц
Частота кадров : 31,250 кадров/сек (1536 spf)
Метод сжатия : С потерями
Размер потока : 290 Мбайт (5%)
Заголовок : DVO (R5)
Язык : Russian
Default : Да
Forced : Нет

Аудио #2
Идентификатор : 3
Формат : AC-3
Формат/Информация : Audio Coding 3
Расширение режима : CM (complete main)
Параметр Endianness формата : Big
Идентификатор кодека : A_AC3
Продолжительность : 1 ч. 45 м.
Вид битрейта : Постоянный
Битрейт : 448 Кбит/сек
Каналы : 6 каналов
Расположение каналов : Front: L C R, Side: L R, LFE
Частота : 48,0 КГц
Частота кадров : 31,250 кадров/сек (1536 spf)
Метод сжатия : С потерями
Размер потока : 338 Мбайт (6%)
Заголовок : AVO (Юрий Сербин, ранний)
Язык : Russian
Default : Нет
Forced : Нет

Аудио #3
Идентификатор : 4
Формат : AC-3
Формат/Информация : Audio Coding 3
Расширение режима : CM (complete main)
Параметр Endianness формата : Big
Идентификатор кодека : A_AC3
Продолжительность : 1 ч. 45 м.
Вид битрейта : Постоянный
Битрейт : 448 Кбит/сек
Каналы : 6 каналов
Расположение каналов : Front: L C R, Side: L R, LFE
Частота : 48,0 КГц
Частота кадров : 31,250 кадров/сек (1536 spf)
Метод сжатия : С потерями
Размер потока : 338 Мбайт (6%)
Заголовок : AVO (Юрий Сербин, поздний)
Язык : Russian
Default : Нет
Forced : Нет

Аудио #4
Идентификатор : 5
Формат : AC-3
Формат/Информация : Audio Coding 3
Расширение режима : CM (complete main)
Параметр Endianness формата : Big
Идентификатор кодека : A_AC3
Продолжительность : 1 ч. 45 м.
Вид битрейта : Постоянный
Битрейт : 448 Кбит/сек
Каналы : 6 каналов
Расположение каналов : Front: L C R, Side: L R, LFE
Частота : 48,0 КГц
Частота кадров : 31,250 кадров/сек (1536 spf)
Метод сжатия : С потерями
Размер потока : 338 Мбайт (6%)
Заголовок : original
Язык : Spanish
Default : Нет
Forced : Нет

Текст #1
Идентификатор : 6
Формат : UTF-8
Идентификатор кодека : S_TEXT/UTF8
Идентификатор кодека/Информация : UTF-8 Plain Text
Продолжительность : 1 ч. 40 м.
Битрейт : 90 бит/сек
Count of elements : 1052
Размер потока : 65,9 Кбайт (0%)
Заголовок : русские
Язык : Russian
Default : Нет
Forced : Нет

Текст #2
Идентификатор : 7
Формат : UTF-8
Идентификатор кодека : S_TEXT/UTF8
Идентификатор кодека/Информация : UTF-8 Plain Text
Продолжительность : 1 ч. 39 м.
Битрейт : 59 бит/сек
Count of elements : 1231
Размер потока : 43,1 Кбайт (0%)
Заголовок : английские
Язык : English
Default : Нет
Forced : Нет

Меню
00:00:00.000 : :Chapter 01
00:04:27.916 : :Chapter 02
00:12:34.833 : :Chapter 03
00:21:46.208 : :Chapter 04
00:32:05.458 : :Chapter 05
00:40:48.708 : :Chapter 06
00:49:20.958 : :Chapter 07
01:02:51.583 : :Chapter 08
01:16:32.666 : :Chapter 09
01:18:29.250 : :Chapter 10
01:24:54.582 : :Chapter 11
01:31:50.375 : :Chapter 12
01:36:49.125 : :Chapter 13
01:40:05.375 : :Chapter 14

МОИ РЕЛИЗЫ
ВКОНТАКТЕ
pb.wtf



Скачать И твою маму тоже через торрент http://s017.radikal.ru/i429/1611/88/ad04608de846.jpg Скачать фильм И твою маму тоже через торрент бесплантно в хорошем качестве Описание: Двое друзей, не обременённые моральными принципами и мучимые подростковыми гормонами, ищут под жарким солнцем Мексики ... 10 10 7
Info! Золотая раздача, скачанное не засчитывается.
Торрент: Зарегистрирован [2016-11-07 06:21] · скачан: 214 раз
Статус: √ проверено
Размер: 5.42 GB
Как cкачать? Как скачать И твою маму тоже через торрент | qTorrent

% Раздел Тема Автор DL S | L
Фильмы [HD 720p, 1080p] (Хороший звук DUB, MVO) [ 15.24 GB ] И твою маму тоже / Y tu mamá también [2001 BDRip 1080p by msltel] DVO AVO msltel Скачать
1 | 0

28-11-2019 20:33  

Отключить всю рекламу на сайте

16-11-2016 21:46 И твою маму тоже Скачать торрент  

А кинчик действительно не дурен, хотя начало не радовало. Финишная прямая ваще удивила. Рейтинги по делу, имхо. Авторам спс.pb.wtf



    Дорогой пользователь! Огромная просьба, поблагодарите релизера, оцените раздачу и оставьте свои комментарий, если Вы скачали И твою маму тоже через торрент бесплатно! Внесите свою лепту в развитие PiratBit!
    Комментировать посты могут только пользователи прошедшие не сложную регистрацию
    Показать сообщения:    

    И твою маму тоже через торрент
    Скачать бесплатно И твою маму тоже
    И твою маму тоже скачать торрент
    И твою маму тоже смотреть онлайн
    Cкачать фильм И твою маму тоже бесплатно
    И твою маму тоже скачать торрент в хорошем качестве
    И твою маму тоже смотреть онлайн бесплатно в хорошем качестве


    Вы не можете начинать темы
    Вы не можете отвечать на сообщения
    Вы не можете редактировать свои сообщения
    Вы не можете удалять свои сообщения
    Вы не можете голосовать в опросах
    Вы не можете прикреплять файлы к сообщениям
    Вы можете скачивать файлы