Всегда рабочее зеркало без VPN и Proxy просто перед .vidak.icu напиши любое слово или цифру, Пример http://o294.vidak.icu

Лицензия

MVO

1 сезон

1

1 сезон

iTunes

1 сезон

13

1 сезон

Deluxe

pack

Рекомендуем

Repack

30

ВАЖНО

RePack

MK11

RePack

jed

RePack

fifa19

RePack

RDR2

RePack

NEED FOR SPEED™ PAYBACK

Кинопоиск HD

6 сезон

 Острые козырьки 6 сезон

Все сериалы

все сериалы на PB.wtf

RePack

FAR CRY 5
  
Magnet ссылка

От заката до рассвета / From Dusk Till Dawn: The Series / 3 сезон / 10 серий из 10 (Роберт Родригес, Джо Менендес, Дуайт Х. Литтл) [2016 г., боевик, ужасы, криминал, HDTVRip/WEBRip] MVO [ColdFilm] pb.wtf

От заката до рассвета через торрент pb.wtf

Размер: 4.22 GB | Добавлен: 5 лет 9 мес. назад | Торрент скачан:13 раз
Смотреть онлайн От заката до рассвета | Скачать    Ребята, помогите собрать деньги на оплату серверов!!!

07-11-2016 07:07 От заката до рассвета Скачать торрент  

От заката до рассвета / From Dusk Till Dawn: The Series
Год выпуска: 2016
Страна: США
Жанр: боевик, ужасы, криминал
Продолжительность: 10 x ~ 00:42:00
Перевод: Любительский (многоголосый)
Субтитры: отсутствуют

Режиссер: Роберт Родригес, Джо Менендес, Дуайт Х. Литтл

rating

В ролях:

Д.Дж. Котрона, Зейн Холц, Роберт Патрик, Эйса Гонсалес, Уилмер Вальдеррама, Эдрианн Палики, Джейк Бьюзи, Дон Джонсон, Мэдисон Девенпорт, Лэйн Гаррисон, Роберт Патрик, Брэндон Су Ху

Описание:

Сет Гекко, грабитель банков, и его не совсем психически стабильный братец Ричард находятся в розыске. Разыскивают их не только ФБР, но и техасские законники — шериф МакГроу и рейнджер Гонсалес, которые утраивают усилия, когда после очередного ограбления, устроенного братьями Гекко, в банке остается несколько трупов. Пытаясь удрать в Мексику, Гекко сталкиваются с бывшим священником Джейкобом Фуллером и его семьёй, которых берут в заложники и в их же трейлере отправляются к мексиканской границе. Заехав в небольшой стрип-клуб по дороге, они неудачно знакомятся с целой прорвой жаждущих крови вампиров и пытаются хотя бы дожить до рассвета, не говоря уже о том, чтобы истребить как можно больше чудовищ.

Качество: HDTVRip/WEBRip
Формат: AVI
Видео кодек: XviD
Аудио кодек: MP3

Видео: 720x400 (1.80:1), 25/23,976 fps, XviD build 64 ~1131/1433 kbps avg, 0.16/0.21 bit/pixel
Аудио#1: 48.0 KHz, MPEG Layer 3, 2 ch, ~128.00 kbps avg (ColdFilm)

Присутствует текстовая и аудио реклама в начале и в конце серии
Общее
Полное имя : C:\Users\Артем\Desktop\торренты\From Dusk Till Dawn (Season 03 ) ColdFIlm\From.Dusk.Till.Dawn.The.Series.S03E01.400p.HDTV.avi
Формат : AVI
Формат/Информация : Audio Video Interleave
Размер файла : 381 Мбайт
Продолжительность : 41 м. 50 с.
Общий поток : 1273 Кбит/сек
Программа кодирования : Lavf54.63.104

Видео
Идентификатор : 0
Формат : xvid
Идентификатор кодека : xvid
Продолжительность : 41 м. 50 с.
Битрейт : 1132 Кбит/сек
Ширина : 720 пикселей
Высота : 400 пикселей
Соотношение сторон : 16:9
Частота кадров : 25,000 кадров/сек
Тип развёртки : Прогрессивная
Бит/(Пиксели*Кадры) : 0.157
Размер потока : 339 Мбайт (89%)

Аудио
Идентификатор : 1
Формат : MPEG Audio
Версия формата : Version 1
Профиль формата : Layer 3
Режим : Joint stereo
Расширение режима : MS Stereo
Идентификатор кодека : 55
Идентификатор кодека/Подсказка : MP3
Продолжительность : 41 м. 50 с.
Вид битрейта : Постоянный
Битрейт : 128 Кбит/сек
Каналы : 2 канала
Частота : 48,0 КГц
Метод сжатия : С потерями
Размер потока : 38,3 Мбайт (10%)
Выравнивание : Соединение по промежуткам
Продолжительность промежутка : 24 мс. (0,60 видеокадр)

Общее
Полное имя : C:\Users\Артем\Desktop\торренты\From Dusk Till Dawn (Season 03 ) ColdFIlm\From.Dusk.Till.Dawn.The.Series.S03E02.400p.WEBRip.ColdFIlm.avi
Формат : AVI
Формат/Информация : Audio Video Interleave
Размер файла : 506 Мбайт
Продолжительность : 45 м. 24 с.
Общий поток : 1556 Кбит/сек
Программа кодирования : Lavf54.63.104

Видео
Идентификатор : 0
Формат : xvid
Идентификатор кодека : xvid
Продолжительность : 44 м. 52 с.
Битрейт : 1433 Кбит/сек
Ширина : 720 пикселей
Высота : 400 пикселей
Соотношение сторон : 16:9
Частота кадров : 23,976 кадра/сек
Тип развёртки : Прогрессивная
Бит/(Пиксели*Кадры) : 0.207
Размер потока : 460 Мбайт (91%)

Аудио
Идентификатор : 1
Формат : MPEG Audio
Версия формата : Version 1
Профиль формата : Layer 3
Режим : Joint stereo
Расширение режима : MS Stereo
Идентификатор кодека : 55
Идентификатор кодека/Подсказка : MP3
Продолжительность : 45 м. 24 с.
Вид битрейта : Постоянный
Битрейт : 128 Кбит/сек
Каналы : 2 канала
Частота : 48,0 КГц
Метод сжатия : С потерями
Размер потока : 41,6 Мбайт (8%)
Выравнивание : Соединение по промежуткам
Продолжительность промежутка : 24 мс. (0,57 видеокадр)

Общее
Полное имя : C:\Users\Артем\Desktop\торренты\From Dusk Till Dawn (Season 03 ) ColdFIlm\From.Dusk.Till.Dawn.The.Series.S03E03.400p.ColdFilm.avi
Формат : AVI
Формат/Информация : Audio Video Interleave
Размер файла : 353 Мбайт
Продолжительность : 42 м. 8 с.
Общий поток : 1170 Кбит/сек
Программа кодирования : Lavf54.63.104

Видео
Идентификатор : 0
Формат : MPEG-4 Visual
Профиль формата : [email protected]
Параметр BVOP формата : Нет
Параметр QPel формата : Нет
Параметр GMC формата : Без точки перехода
Параметр матрицы формата : Default (H.263)
Идентификатор кодека : FMP4
Продолжительность : 42 м. 8 с.
Битрейт : 997 Кбит/сек
Ширина : 720 пикселей
Высота : 400 пикселей
Соотношение сторон : 16:9
Частота кадров : 23,976 кадра/сек
Цветовое пространство : YUV
Субдискретизация насыщенности : 4:2:0
Битовая глубина : 8 бит
Тип развёртки : Прогрессивная
Метод сжатия : С потерями
Бит/(Пиксели*Кадры) : 0.144
Размер потока : 301 Мбайт (85%)
Библиотека кодирования : Lavc54.92.100

Аудио
Идентификатор : 1
Формат : MPEG Audio
Версия формата : Version 1
Профиль формата : Layer 3
Режим : Joint stereo
Расширение режима : MS Stereo
Идентификатор кодека : 55
Идентификатор кодека/Подсказка : MP3
Продолжительность : 42 м. 8 с.
Вид битрейта : Постоянный
Битрейт : 160 Кбит/сек
Каналы : 2 канала
Частота : 48,0 КГц
Метод сжатия : С потерями
Размер потока : 48,2 Мбайт (14%)
Выравнивание : Соединение по промежуткам
Продолжительность промежутка : 24 мс. (0,58 видеокадр)

Общее
Полное имя : C:\Users\Артем\Desktop\торренты\From Dusk Till Dawn (Season 03 ) ColdFIlm\From.Dusk.Till.Dawn.The.Series.S03E04.400p.WEBRip.Coldfilm.Ru.avi
Формат : AVI
Формат/Информация : Audio Video Interleave
Размер файла : 426 Мбайт
Продолжительность : 44 м. 11 с.
Общий поток : 1348 Кбит/сек
Программа кодирования : Lavf54.63.104

Видео
Идентификатор : 0
Формат : xvid
Идентификатор кодека : xvid
Продолжительность : 44 м. 11 с.
Битрейт : 1207 Кбит/сек
Ширина : 720 пикселей
Высота : 400 пикселей
Соотношение сторон : 16:9
Частота кадров : 23,976 кадра/сек
Тип развёртки : Прогрессивная
Бит/(Пиксели*Кадры) : 0.175
Размер потока : 382 Мбайт (90%)

Аудио
Идентификатор : 1
Формат : MPEG Audio
Версия формата : Version 1
Профиль формата : Layer 3
Режим : Joint stereo
Расширение режима : MS Stereo
Идентификатор кодека : 55
Идентификатор кодека/Подсказка : MP3
Продолжительность : 44 м. 11 с.
Вид битрейта : Постоянный
Битрейт : 128 Кбит/сек
Каналы : 2 канала
Частота : 48,0 КГц
Метод сжатия : С потерями
Размер потока : 40,5 Мбайт (9%)
Выравнивание : Соединение по промежуткам
Продолжительность промежутка : 24 мс. (0,58 видеокадр)

Общее
Полное имя : C:\Users\Артем\Desktop\торренты\From Dusk Till Dawn (Season 03 ) ColdFIlm\From.Dusk.Till.Dawn.The.Series.S03E05.400p.HDTV.ColdFilm.avi
Формат : AVI
Формат/Информация : Audio Video Interleave
Размер файла : 435 Мбайт
Продолжительность : 42 м. 32 с.
Общий поток : 1429 Кбит/сек
Программа кодирования : Lavf54.63.104

Видео
Идентификатор : 0
Формат : xvid
Идентификатор кодека : xvid
Продолжительность : 42 м. 32 с.
Битрейт : 1288 Кбит/сек
Ширина : 720 пикселей
Высота : 400 пикселей
Соотношение сторон : 16:9
Частота кадров : 25,000 кадров/сек
Тип развёртки : Прогрессивная
Бит/(Пиксели*Кадры) : 0.179
Размер потока : 392 Мбайт (90%)

Аудио
Идентификатор : 1
Формат : MPEG Audio
Версия формата : Version 1
Профиль формата : Layer 3
Режим : Joint stereo
Расширение режима : MS Stereo
Идентификатор кодека : 55
Идентификатор кодека/Подсказка : MP3
Продолжительность : 42 м. 32 с.
Вид битрейта : Постоянный
Битрейт : 128 Кбит/сек
Каналы : 2 канала
Частота : 48,0 КГц
Метод сжатия : С потерями
Размер потока : 38,9 Мбайт (9%)
Выравнивание : Соединение по промежуткам
Продолжительность промежутка : 24 мс. (0,60 видеокадр)

Общее
Полное имя : C:\Users\Артем\Desktop\торренты\From Dusk Till Dawn (Season 03 ) ColdFIlm\From.Dusk.Till.Dawn.The.Series.S03E06.400p.HDTV.ColdFIlm.avi
Формат : AVI
Формат/Информация : Audio Video Interleave
Размер файла : 394 Мбайт
Продолжительность : 45 м. 50 с.
Общий поток : 1201 Кбит/сек
Программа кодирования : Lavf54.63.104

Видео
Идентификатор : 0
Формат : xvid
Идентификатор кодека : xvid
Продолжительность : 45 м. 50 с.
Битрейт : 1017 Кбит/сек
Ширина : 720 пикселей
Высота : 400 пикселей
Соотношение сторон : 16:9
Частота кадров : 25,000 кадров/сек
Тип развёртки : Прогрессивная
Бит/(Пиксели*Кадры) : 0.141
Размер потока : 333 Мбайт (85%)

Аудио
Идентификатор : 1
Формат : MPEG Audio
Версия формата : Version 1
Профиль формата : Layer 3
Режим : Joint stereo
Расширение режима : MS Stereo
Идентификатор кодека : 55
Идентификатор кодека/Подсказка : MP3
Продолжительность : 45 м. 50 с.
Вид битрейта : Постоянный
Битрейт : 128 Кбит/сек
Каналы : 2 канала
Частота : 48,0 КГц
Метод сжатия : С потерями
Размер потока : 42,0 Мбайт (11%)
Выравнивание : Соединение по промежуткам

Общее
Полное имя : C:\Users\Артем\Desktop\торренты\From Dusk Till Dawn (Season 03 ) ColdFIlm\From.Dusk.Till.Dawn.The.Series.S03E07.400p.HDTV.Coldfilm.avi
Формат : AVI
Формат/Информация : Audio Video Interleave
Размер файла : 412 Мбайт
Продолжительность : 45 м. 28 с.
Общий поток : 1267 Кбит/сек
Программа кодирования : Lavf54.63.104

Видео
Идентификатор : 0
Формат : xvid
Идентификатор кодека : xvid
Продолжительность : 45 м. 28 с.
Битрейт : 1126 Кбит/сек
Ширина : 720 пикселей
Высота : 400 пикселей
Соотношение сторон : 16:9
Частота кадров : 25,000 кадров/сек
Тип развёртки : Прогрессивная
Бит/(Пиксели*Кадры) : 0.156
Размер потока : 366 Мбайт (89%)

Аудио
Идентификатор : 1
Формат : MPEG Audio
Версия формата : Version 1
Профиль формата : Layer 3
Режим : Joint stereo
Расширение режима : MS Stereo
Идентификатор кодека : 55
Идентификатор кодека/Подсказка : MP3
Продолжительность : 45 м. 28 с.
Вид битрейта : Постоянный
Битрейт : 128 Кбит/сек
Каналы : 2 канала
Частота : 48,0 КГц
Метод сжатия : С потерями
Размер потока : 41,6 Мбайт (10%)
Выравнивание : Соединение по промежуткам
Продолжительность промежутка : 24 мс. (0,60 видеокадр)

Общее
Полное имя : C:\Users\Артем\Desktop\торренты\From Dusk Till Dawn (Season 03 ) ColdFIlm\From.Dusk.Till.Dawn.The.Series.S03E08.400p.WEB-DL.ColdFilm.Ru.avi
Формат : AVI
Формат/Информация : Audio Video Interleave
Размер файла : 419 Мбайт
Продолжительность : 44 м. 52 с.
Общий поток : 1306 Кбит/сек
Программа кодирования : Lavf54.63.104

Видео
Идентификатор : 0
Формат : xvid
Идентификатор кодека : xvid
Продолжительность : 44 м. 52 с.
Битрейт : 1165 Кбит/сек
Ширина : 720 пикселей
Высота : 400 пикселей
Соотношение сторон : 16:9
Частота кадров : 25,000 кадров/сек
Тип развёртки : Прогрессивная
Бит/(Пиксели*Кадры) : 0.162
Размер потока : 374 Мбайт (89%)

Аудио
Идентификатор : 1
Формат : MPEG Audio
Версия формата : Version 1
Профиль формата : Layer 3
Режим : Joint stereo
Расширение режима : MS Stereo
Идентификатор кодека : 55
Идентификатор кодека/Подсказка : MP3
Продолжительность : 44 м. 52 с.
Вид битрейта : Постоянный
Битрейт : 128 Кбит/сек
Каналы : 2 канала
Частота : 48,0 КГц
Метод сжатия : С потерями
Размер потока : 41,1 Мбайт (10%)
Выравнивание : Соединение по промежуткам
Продолжительность промежутка : 24 мс. (0,60 видеокадр)

Общее
Полное имя : C:\Users\Артем\Desktop\торренты\From Dusk Till Dawn (Season 03 ) ColdFIlm\From.Dusk.Till.Dawn.The.Series.S03E09.400p.HDTV.ColdFilm.avi
Формат : AVI
Формат/Информация : Audio Video Interleave
Размер файла : 512 Мбайт
Продолжительность : 44 м. 23 с.
Общий поток : 1611 Кбит/сек
Программа кодирования : Lavf54.63.104

Видео
Идентификатор : 0
Формат : xvid
Идентификатор кодека : xvid
Продолжительность : 44 м. 23 с.
Битрейт : 1470 Кбит/сек
Ширина : 720 пикселей
Высота : 400 пикселей
Соотношение сторон : 16:9
Частота кадров : 25,000 кадров/сек
Тип развёртки : Прогрессивная
Бит/(Пиксели*Кадры) : 0.204
Размер потока : 467 Мбайт (91%)

Аудио
Идентификатор : 1
Формат : MPEG Audio
Версия формата : Version 1
Профиль формата : Layer 3
Режим : Joint stereo
Расширение режима : MS Stereo
Идентификатор кодека : 55
Идентификатор кодека/Подсказка : MP3
Продолжительность : 44 м. 23 с.
Вид битрейта : Постоянный
Битрейт : 128 Кбит/сек
Каналы : 2 канала
Частота : 48,0 КГц
Метод сжатия : С потерями
Размер потока : 40,6 Мбайт (8%)
Выравнивание : Соединение по промежуткам
Продолжительность промежутка : 24 мс. (0,60 видеокадр)
Библиотека кодирования : LAME3.99.5

Общее
Полное имя : C:\Users\Артем\Desktop\торренты\From Dusk Till Dawn (Season 03 ) ColdFIlm\From.Dusk.Till.Dawn.The.Series.S03E10.400p.HDTV.ColdFilm.avi
Формат : AVI
Формат/Информация : Audio Video Interleave
Размер файла : 481 Мбайт
Продолжительность : 44 м. 18 с.
Общий поток : 1518 Кбит/сек
Программа кодирования : Lavf54.63.104

Видео
Идентификатор : 0
Формат : xvid
Идентификатор кодека : xvid
Продолжительность : 44 м. 18 с.
Битрейт : 1377 Кбит/сек
Ширина : 720 пикселей
Высота : 400 пикселей
Соотношение сторон : 16:9
Частота кадров : 23,976 кадра/сек
Тип развёртки : Прогрессивная
Бит/(Пиксели*Кадры) : 0.199
Размер потока : 436 Мбайт (91%)

Аудио
Идентификатор : 1
Формат : MPEG Audio
Версия формата : Version 1
Профиль формата : Layer 3
Режим : Joint stereo
Расширение режима : MS Stereo
Идентификатор кодека : 55
Идентификатор кодека/Подсказка : MP3
Продолжительность : 44 м. 18 с.
Вид битрейта : Постоянный
Битрейт : 128 Кбит/сек
Каналы : 2 канала
Частота : 48,0 КГц
Метод сжатия : С потерями
Размер потока : 40,6 Мбайт (8%)
Выравнивание : Соединение по промежуткам
Продолжительность промежутка : 24 мс. (0,58 видеокадр)
Библиотека кодирования : LAME3.99.5
скриншот  скриншот  скриншот  скриншот  


pb.wtf



Скачать От заката до рассвета через торрент https://pic1.kartinco.top/images/11/q6uif.jpg Скачать, смотреть онлайн От заката до рассвета бесплантно в хорошем качестве Описание: Сет Гекко, грабитель банков, и его не совсем психически стабильный братец Ричард находятся в розыске. Разыскивают их не только ... 10 10 4
Торрент: Зарегистрирован [2016-11-07 07:07] · скачан: 13 раз
Статус: √ проверено
Размер: 4.22 GB
Как cкачать? Как скачать От заката до рассвета через торрент | UTorrent

% Раздел Тема Автор DL S | L
Зарубежные сериалы [ 8.18 GB ] От заката до рассвета / From Dusk Till Dawn: The Series / Сезон: 3 / Серии 1-10 из 10 [2016 WEB-DLRip-AVC] MVO [NewStudio] GEKADOL Скачать
1 | 0

28-11-2019 20:33  

Отключить вcю реклaмy на сайте

08-11-2016 06:08 От заката до рассвета Скачать торрент  

Всем приятного просмотра) pb.wtf



    Дорогой пользователь! Огромная просьба, поблагодарите релизера, оцените раздачу и оставьте свои комментарий, если Вы скачали От заката до рассвета через торрент бесплатно!
    Комментировать посты могут только пользователи прошедшие не сложную регистрацию
    Показать сообщения:    

    От заката до рассвета через торрент
    Скачать бесплатно От заката до рассвета
    От заката до рассвета скачать торрент
    От заката до рассвета смотреть онлайн
    Cкачать фильм От заката до рассвета бесплатно
    От заката до рассвета скачать торрент в хорошем качестве
    От заката до рассвета смотреть онлайн бесплатно в хорошем качестве


    Вы не можете начинать темы
    Вы не можете отвечать на сообщения
    Вы не можете редактировать свои сообщения
    Вы не можете удалять свои сообщения
    Вы не можете голосовать в опросах
    Вы не можете прикреплять файлы к сообщениям
    Вы можете скачивать файлы