новый адрес
Мега распродажа FORZA HORIZON 4 ULTIMATE+ВСЕ DLC+ОНЛАЙН всего за 499р. 349 руб. (супер цена). Внимание количество ограничено!!!

iTunes

1+1

iTunes

мы

iTunes

1

iTunes

Чернобыль

iTunes

Ральф против интернета

Лицензия

ПШазам

Лицензия

Игра престолов

Лицензия

30
pack

ВАЖНО

!!Акция!!

Alien_RageХит недели

RePack

Resident Evil 21

ИГРА 18+

pack

RePack

Metro:Exodus

!!Акция!!

Alien_Rage

RePack

fifa19

RePack

Assassins Creed: Odyssey

RePack

NEED FOR SPEED™ PAYBACK

3 сезон

9 сезон

Бесстыжие 9 сезон

Все сериалы

все сериалы на PB.wtf

RePack

FAR CRY 5
Ребята, катастрофически не хватает 1900р. для оплаты серверов за Октябрь (всвязи с блокировками трафик упал в 3 раза), 1-2р., выручайте.
  

Бессмертный гарнизон (Захар Аграненко, Эдуард Тиссэ) [1956, СССР, драма, военный, DVDRip от AVP Studio] pb.wtf

Бессмертный гарнизон через торрент pb.wtf

Размер: 1.09 GB | Добавлен: 3 года назад | Торрент скачан:17 раз
Скачать  

07-11-2016 10:18 Бессмертный гарнизон Скачать торрент  

Бессмертный гарнизон
Страна: СССР
Производство: Мосфильм

Жанр: драма, военный
Год выпуска: 1956
Продолжительность: 01:30:05

Перевод: Не требуется
Cубтитры: нет
Оригинальная аудиодорожка: русский

Режиссер: Захар Аграненко, Эдуард Тиссэ

В ролях:
Василий Макаров, Владимир Емельянов, Николай Крючков, Анатолий Чемодуров, Валентина Серова, Лидия Сухаревская, Антонина Богданова, Лариса Нарышкина, Геннадий Сайфулин, Надя Фандикова, Феликс Яворский, Владимир Монахов (II), Евгений Михайлов (II), Михаил Дадыко, Леонид Чубаров, Юрий Аверин...
Полный список актёров

Описание:
Фильм посвящен беспримерному подвигу защитников Брестской крепости. Время действия: 22 июня - 20 июля 1941 года, первые, самые страшные дни Великой Отечественной войны. В ленте отражен всенародный патриотический подъем в дни фашистского нашествия, самоотверженность и сплоченность советских людей перед лицом врага.

Источник: DVD5 R5
Качество видео: DVDRip
Формат видео: AVI

Видео: 688x512 (4:3), 25 fps, XviD ~ 1528 kbps avg, 0.173 bit/pixel
Аудио: 48 kHz, Dolby Digital AC3 2.0, 192 kbps

Раздача от:
Общее
Полное имя : Bessmertnyi.garnizon.1956.DVDRip_[New-team]_by_AVP_Studio.avi
Формат : AVI
Формат/Информация : Audio Video Interleave
Размер файла : 1,09 Гбайт
Продолжительность : 1 ч. 30 м.
Общий поток : 1729 Кбит/сек
Программа кодирования : VirtualDubMod 1.5.10.3 | www.virtualdub-fr.org || (build 2550/release)
Библиотека кодирования : VirtualDubMod build 2550/release

Видео
Идентификатор : 0
Формат : MPEG-4 Visual
Профиль формата : Advanced Simple@L5
Параметр BVOP формата : 1
Параметр QPel формата : Нет
Параметр GMC формата : Без точки перехода
Параметр матрицы формата : Выборочная
Идентификатор кодека : XVID
Идентификатор кодека/Подсказка : XviD
Продолжительность : 1 ч. 30 м.
Битрейт : 1528 Кбит/сек
Ширина : 688 пикселей
Высота : 512 пикселей
Соотношение сторон : 4:3
Частота кадров : 25,000 кадров/сек
Цветовое пространство : YUV
Субдискретизация насыщенности : 4:2:0
Битовая глубина : 8 бит
Тип развёртки : Прогрессивная
Метод сжатия : С потерями
Бит/(Пиксели*Кадры) : 0.173
Размер потока : 984 Мбайт (88%)
Библиотека кодирования : XviD 1.2.1 (UTC 2008-12-04)

Аудио
Идентификатор : 1
Формат : AC-3
Формат/Информация : Audio Coding 3
Расширение режима : CM (complete main)
Параметр Endianness формата : Big
Идентификатор кодека : 2000
Продолжительность : 1 ч. 30 м.
Вид битрейта : Постоянный
Битрейт : 192 Кбит/сек
Каналы : 2 канала
Расположение каналов : Front: L R
Частота : 48,0 КГц
Частота кадров : 31,250 кадров/сек (1536 spf)
Битовая глубина : 16 бит
Метод сжатия : С потерями
Размер потока : 124 Мбайт (11%)
Выравнивание : Разделение по промежуткам
Продолжительность промежутка : 40 мс. (1,00 видеокадр)
Время предзагрузки промежутка : 500 мс
pb.wtf



Скачать Бессмертный гарнизон через торрент http://s019.radikal.ru/i614/1611/17/429cb30a9342.png Скачать фильм Бессмертный гарнизон через торрент бесплантно в хорошем качестве Описание:Фильм посвящен беспримерному подвигу защитников Брестской крепости. Время действия: 22 июня - 20 июля 1941 года, первые, самые ... 5 10 1
Info! Золотая раздача, скачанное не засчитывается.
Торрент: Зарегистрирован [2016-11-07 10:18] · скачан: 17 раз
Статус: √ проверено
Размер: 1.09 GB
Как cкачать? Как скачать Бессмертный гарнизон через торрент | qTorrent

% Раздел Тема Автор DL S | L
Кино СССР [ 1.09 GB ] Бессмертный гарнизон [1956 СССР военный DVDRip-AVC от AVP Studio] AVP Studio Скачать
1 | 0
Кино СССР [ 744 MB ] Бессмертный гарнизон [1956 СССР военный DVDRip от AVP Studio] AVP Studio Скачать
1 | 0
Кино СССР [ 1.37 GB ] Бессмертный гарнизон [1956 военный DVDRip] 1980Артем1980 Скачать
1 | 0


>> Регистрируемся здесь <<






Отзывы и комментарии о схеме читаем и пишем здесь: ---> Отзывы и комментарии о схеме

Новые благодарочки в телеграм довольных пользователей:
скриншот   скриншот   скриншот   скриншот   скриншот
    Дорогой пользователь! Огромная просьба, поблагодарите релизера, оцените раздачу и оставьте свои комментарий, если Вы скачали Бессмертный гарнизон через торрент бесплатно! Внесите свою лепту в развитие PiratBit!
    Комментировать посты могут только пользователи прошедшие не сложную регистрацию
    Показать сообщения:    

    Бессмертный гарнизон через торрент
    Скачать бесплатно Бессмертный гарнизон
    Бессмертный гарнизон скачать торрент
    Бессмертный гарнизон смотреть онлайн
    Cкачать фильм Бессмертный гарнизон бесплатно
    Бессмертный гарнизон скачать торрент в хорошем качестве
    Бессмертный гарнизон смотреть онлайн бесплатно в хорошем качестве


    Вы не можете начинать темы
    Вы не можете отвечать на сообщения
    Вы не можете редактировать свои сообщения
    Вы не можете удалять свои сообщения
    Вы не можете голосовать в опросах
    Вы не можете прикреплять файлы к сообщениям
    Вы можете скачивать файлы