2 сезон

iTunes

MVO

1

2 сезон

iTunes

iTunes

1 сезон

RePack

30

Ultimate

ВАЖНО

ИГРА 18+

pack

RePack

MK11
pack

Легкие деньги

RePack

jed

RePack

fifa19

RePack

RDR2

RePack

NEED FOR SPEED™ PAYBACK

4 сезон

9 сезон

Бесстыжие 9 сезон

Все сериалы

все сериалы на PB.wtf

RePack

FAR CRY 5

Anonymous, доброй ночи, мы не успеваем собрать деньги на оплату серверов за декабрь и январь, помогите нам пожалуйста в это трудное время. В качестве благодарности мы отключим Вам всю рекламу на сайте (укажите свой ник в строку Ваше имя)!

×
  
Magnet ссылка

Шерлок / Sherlock / Сезон: 1-3 / Серии: 1-9 из 9 [2010-2014, Драма, детектив, HDTVRip] [DUB] [Первый канал] pb.wtf

Шерлок через торрент pb.wtf

Раздают: 4 [ 30 KB/s ]
Размер: 10.03 GB | Добавлен: 4 года 2 мес. назад | Торрент скачан:2629 раз
Скачать  

07-11-2016 17:23 Шерлок Скачать торрент  

Шерлок / Sherlock (Сезон 01-03)
Год выпуска: 2010-2014
Страна: Великобритания
Жанр: Детектив, драма, комедия
Продолжительность: ~ 01:30:00 / Серия
Перевод: Полное дублирование [Первый канал]
Субтитры: Русские (на надписи)

Режиссёр: Джереми Лавринг, Колм Маккарти, Ник Харран

В ролях: Бенедикт Камбербэтч, Мартин Фриман, Уна Стаббс, Лу Брили, Руперт Грейвз, Марк Гатисс, Зои Телфорд, Винетт Робинсон, Таня Муди, Джонатан Арис и другие.

Описание:
Третий сезон: после смерти Шерлока проходит два года, жизнь доктора Джона Ватсона идет своим чередом. А вот над Лондоном нависает угроза разрушительной террористической атаки, и Шерлок готовит сценарий своего невероятного воскрешения. Но, если он думает, что за время его отсутствия ничего не изменилось – он будет очень удивлен…



Качество: HDTVRip
Формат: AVI
Видео кодек: XVID
Аудио кодек: AC3
Видео: 720x400 (1.80:1), 25 fps, XviD build 50 ~1600 Kbps
Аудио: 48 kHz, AC3 Dolby Digital, 2/0 (L,R) ch, ~192.00 kbps avg
General
Complete name : E:\Sherlok.tahiy\1\Sherlok.3.serija.tahiy.avi
Format : AVI
Format/Info : Audio Video Interleave
File size : 1.13 GiB
Duration : 1h 29mn
Overall bit rate : 1 810 Kbps
Movie name : - = Rip by tahiy = -
Writing application : VirtualDubMod 1.5.10.3 | www.virtualdub-fr.org || (build 2550/release)

Video
ID : 0
Format : MPEG-4 Visual
Format profile : Advanced Simple@L5
Format settings, BVOP : 1
Format settings, QPel : No
Format settings, GMC : No warppoints
Format settings, Matrix : Default (MPEG)
Codec ID : XVID
Codec ID/Hint : XviD
Duration : 1h 29mn
Bit rate : 1 537 Kbps
Width : 720 pixels
Height : 400 pixels
Display aspect ratio : 16:9
Frame rate : 25.000 fps
Color space : YUV
Chroma subsampling : 4:2:0
Bit depth : 8 bits
Scan type : Progressive
Compression mode : Lossy
Bits/(Pixel*Frame) : 0.213
Stream size : 982 MiB (85%)
Writing library : XviD 1.2.1 (UTC 2008-12-04)

Audio
ID : 1
Format : AC-3
Format/Info : Audio Coding 3
Mode extension : CM (complete main)
Format settings, Endianness : Big
Codec ID : 2000
Duration : 1h 29mn
Bit rate mode : Constant
Bit rate : 192 Kbps
Channel(s) : 2 channels
Channel positions : Front: L R
Sampling rate : 48.0 KHz
Compression mode : Lossy
Stream size : 123 MiB (11%)
Alignment : Split accross interleaves
pb.wtf



Скачать Шерлок через торрент http://i82.fastpic.ru/big/2016/1107/90/b0890ce31c6aad2353337c7e58219090.jpg Скачать фильм Шерлок через торрент бесплантно в хорошем качестве Описание: Третий сезон: после смерти Шерлока проходит два года, жизнь доктора Джона Ватсона идет своим чередом. А вот над Лондоном нависает ... 10 10 41
Info! Золотая раздача, скачанное не засчитывается.
Торрент: Зарегистрирован [2016-11-07 17:23] · скачан: 2 629 раз
Статус: √ проверено
Размер: 10.03 GB
Как cкачать? Как скачать Шерлок через торрент | UTorrent

% Раздел Тема Автор DL S | L
Шерлок [ 64.54 GB ] Шерлок / Sherlock / Сезон: 1-3 / Серии: 1-9 из 9 [2010-2014 BDRip 1080p] [Локализованная версия] killermax2013 Скачать
4 | 0
Шерлок [ 6.55 GB ] Шерлок / Sherlock / Сезоны: 1-3 / Серии: 1-9 из 9 [2010-2014 BDRip-AVC] Dub Первый канал + Sub Rus & Eng Serejechka Скачать
1 | 1
Фильмы с украинским озвучиванием [ 8.79 GB ] Шерлок / Sherlock / Сезон: 1-3 / Серии 1-9 из 9 [2010-2014 BDRip-AVC] [Ukr DUB] killermax2013 Скачать
1 | 0

28-11-2019 20:33  

Отключить всю рекламу на сайте

14-11-2019 20:42 Шерлок Скачать торрент  

А где серии 0? ДВЕ ШТУКИ? E1 s0 Unaired Pilot и E3 s0 Many Happy Returnspb.wtf



    Дорогой пользователь! Огромная просьба, поблагодарите релизера, оцените раздачу и оставьте свои комментарий, если Вы скачали Шерлок через торрент бесплатно! Внесите свою лепту в развитие PiratBit!
    Комментировать посты могут только пользователи прошедшие не сложную регистрацию
    Показать сообщения:    

    Шерлок через торрент
    Скачать бесплатно Шерлок
    Шерлок скачать торрент
    Шерлок смотреть онлайн
    Cкачать фильм Шерлок бесплатно
    Шерлок скачать торрент в хорошем качестве
    Шерлок смотреть онлайн бесплатно в хорошем качестве


    Вы не можете начинать темы
    Вы не можете отвечать на сообщения
    Вы не можете редактировать свои сообщения
    Вы не можете удалять свои сообщения
    Вы не можете голосовать в опросах
    Вы не можете прикреплять файлы к сообщениям
    Вы можете скачивать файлы