новый адрес
Мега распродажа FORZA HORIZON 4 ULTIMATE+ВСЕ DLC+ОНЛАЙН всего за 499р. 349 руб. (супер цена). Внимание количество ограничено!!!

iTunes

1+1

iTunes

мы

iTunes

1

iTunes

Чернобыль

iTunes

Ральф против интернета

Лицензия

ПШазам

Лицензия

Оно 2

Лицензия

30
pack

ВАЖНО

!!Акция!!

Alien_RageХит недели

RePack

Resident Evil 21

ИГРА 18+

pack

RePack

Metro:Exodus

!!Акция!!

Alien_Rage

RePack

fifa19

RePack

Assassins Creed: Odyssey

RePack

NEED FOR SPEED™ PAYBACK

3 сезон

9 сезон

Бесстыжие 9 сезон

Все сериалы

все сериалы на PB.wtf

RePack

FAR CRY 5
Ребята, катастрофически не хватает 1900р. для оплаты серверов за Октябрь (всвязи с блокировками трафик упал в 3 раза), 1-2р., выручайте.
  

Саутсайд с тобой / Southside with You (Ричард Танн) [2016, драма, мелодрама, биография, TS] любительский (многоголосный) [КОЛОБОК] pb.wtf

Саутсайд с тобой через торрент pb.wtf

Размер: 1.37 GB | Добавлен: 3 года назад | Торрент скачан:14 раз
Скачать  

07-11-2016 19:45 Саутсайд с тобой Скачать торрент  

Саутсайд с тобой / Southside with You


Год выпуска: 2016
Страна: США
Жанр: драма, мелодрама, биография
Продолжительность: 01:17:33
Перевод: любительский (многоголосный) [КОЛОБОК]
Режиссер: Ричард Танн
В ролях:

Тика Самптер (Michelle Robinson), Ванесса Белл Кэллоуэй (Marian Robinson), Паркер Сойерс (Barack Obama), Филлип Эдвард Ван Леар (Fraser C. Robinson III), Дебора Геффнер (Toot), Алекс Зеленка (Museum goer), Престон Тейт мл. (Kyle), Джерод Хэйнс (Tommy), Томас Эдсон МакЭлрой (Avery Goodman), Fred Nance Jr. (Nance Residence), Джереми Майкл Перейра (Bar Patron), Дианна Рид Фостер (Bernadette)
:
Чикаго, 1989 год. Молодой студент, Барак Обама, знакомится с начинающим юристом Мишель Робинсон.
Мировая премьера: 24 января 2016

Качество: TS
Формат: AVI
Видео: XviD, 720x320 (2.25:1), 1738 kbps, 29.970 fps, 0.252 bpp
Аудио English: AC3 / 2.0 / 48 kHz / 384 kbps / 2 ch
Аудио Russian: AC3 / 2.0 / 48 kHz / 384 kbps / 2 ch

Примечание: Присутствует реклама!
General
Complete name : D:\Movies For Seed\Southside.with.You.2016.D.TS.14OOMB.avi
Format : AVI
Format/Info : Audio Video Interleave
File size : 1.37 GiB
Duration : 1 h 17 min
Overall bit rate : 2 523 kb/s
Writing application : VirtualDubMod 1.5.10.2 (build 2540/release)
Writing library : VirtualDubMod build 2540/release

Video
ID : 0
Format : MPEG-4 Visual
Format profile : Advanced Simple@L5
Format settings, BVOP : 2
Format settings, QPel : No
Format settings, GMC : No warppoints
Format settings, Matrix : Custom
Codec ID : XVID
Codec ID/Hint : XviD
Duration : 1 h 17 min
Bit rate : 1 738 kb/s
Width : 720 pixels
Height : 320 pixels
Display aspect ratio : 2.25:1
Frame rate : 29.970 (30000/1001) FPS
Color space : YUV
Chroma subsampling : 4:2:0
Bit depth : 8 bits
Scan type : Progressive
Compression mode : Lossy
Bits/(Pixel*Frame) : 0.252
Stream size : 964 MiB (69%)
Writing library : XviD 1.2.1 (UTC 2008-12-04)

Audio #1
ID : 1
Format : AC-3
Format/Info : Audio Coding 3
Mode extension : CM (complete main)
Format settings, Endianness : Big
Codec ID : 2000
Duration : 1 h 17 min
Bit rate mode : Constant
Bit rate : 384 kb/s
Channel(s) : 2 channels
Channel positions : Front: L R
Sampling rate : 48.0 kHz
Frame rate : 31.250 FPS (1536 spf)
Compression mode : Lossy
Stream size : 213 MiB (15%)
Alignment : Split accross interleaves
Interleave, duration : 33 ms (1.00 video frame)
Interleave, preload duration : 500 ms

Audio #2
ID : 2
Format : AC-3
Format/Info : Audio Coding 3
Mode extension : CM (complete main)
Format settings, Endianness : Big
Codec ID : 2000
Duration : 1 h 17 min
Bit rate mode : Constant
Bit rate : 384 kb/s
Channel(s) : 2 channels
Channel positions : Front: L R
Sampling rate : 48.0 kHz
Frame rate : 31.250 FPS (1536 spf)
Compression mode : Lossy
Stream size : 213 MiB (15%)
Alignment : Split accross interleaves
Interleave, duration : 33 ms (1.00 video frame)
Interleave, preload duration : 500 ms

© Оформление by White Smoke pb.wtf



Скачать Саутсайд с тобой через торрент http://i3.imageban.ru/out/2016/11/07/43b864e9424e688ff7c50700bbfc6676.jpg Скачать фильм Саутсайд с тобой через торрент бесплантно в хорошем качестве В ролях: Тика Самптер (Michelle Robinson), Ванесса Белл Кэллоуэй (Marian Robinson), Паркер Сойерс (Barack Obama), ... 5.5 10 2
Торрент: Зарегистрирован [2016-11-07 19:45] · скачан: 14 раз
Статус: T временная
Размер: 1.37 GB
Как cкачать? Как скачать Саутсайд с тобой через торрент | qTorrent



Последний раз редактировалось: PsYcho (2016-11-10 23:08), всего редактировалось 9 раз(а)


>> Регистрируемся здесь <<






Отзывы и комментарии о схеме читаем и пишем здесь: ---> Отзывы и комментарии о схеме

Новые благодарочки в телеграм довольных пользователей:
скриншот   скриншот   скриншот   скриншот   скриншот

08-11-2016 02:08 Саутсайд с тобой Скачать торрент  



Последний раз редактировалось: schultz (2016-11-09 18:02), всего редактировалось 3 раз(а)

12-11-2016 03:46 Саутсайд с тобой Скачать торрент  

А сиськи будут в этом фильме ?pb.wtf



    Дорогой пользователь! Огромная просьба, поблагодарите релизера, оцените раздачу и оставьте свои комментарий, если Вы скачали Саутсайд с тобой через торрент бесплатно! Внесите свою лепту в развитие PiratBit!
    Комментировать посты могут только пользователи прошедшие не сложную регистрацию
    Показать сообщения:    

    Саутсайд с тобой через торрент
    Скачать бесплатно Саутсайд с тобой
    Саутсайд с тобой скачать торрент
    Саутсайд с тобой смотреть онлайн
    Cкачать фильм Саутсайд с тобой бесплатно
    Саутсайд с тобой скачать торрент в хорошем качестве
    Саутсайд с тобой смотреть онлайн бесплатно в хорошем качестве


    Вы не можете начинать темы
    Вы не можете отвечать на сообщения
    Вы не можете редактировать свои сообщения
    Вы не можете удалять свои сообщения
    Вы не можете голосовать в опросах
    Вы не можете прикреплять файлы к сообщениям
    Вы можете скачивать файлы