новый адрес
Ссылка на приватное зеркало всего за 1$. Внимание количество ограничено!!!

iTunes

1+1

iTunes

мы

iTunes

1

iTunes

Чернобыль

iTunes

Ральф против интернета

Лицензия

ПШазам

Лицензия

Оно 2

Лицензия

30
pack

Вам бонус

ВАЖНО

!!Акция!!

Alien_RageХит недели

RePack

Resident Evil 21

ИГРА 18+

pack

RePack

jed

!!Акция!!

Alien_Rage

RePack

fifa19

RePack

Assassins Creed: Odyssey

RePack

NEED FOR SPEED™ PAYBACK

3 сезон

9 сезон

Бесстыжие 9 сезон

Все сериалы

все сериалы на PB.wtf

RePack

FAR CRY 5
Ребята, катастрофически не хватает 1900р. для оплаты серверов за Октябрь (всвязи с блокировками трафик упал в 3 раза), 1-2р., выручайте.
  

Безумный день (Андрей Тутышкин) [1956, СССР, мюзикл, комедия, DVDRip от AVP Studio] pb.wtf

Безумный день через торрент pb.wtf

Размер: 742 MB | Добавлен: 3 года назад | Торрент скачан:14 раз
Скачать  

08-11-2016 09:06 Безумный день Скачать торрент  

Безумный день
Страна: СССР
Производство: Мосфильм

Жанр: мюзикл, комедия
Год выпуска: 1956
Продолжительность: 01:03:24

Перевод: Не требуется
Cубтитры: нет
Оригинальная аудиодорожка: русский

Режиссер: Андрей Тутышкин

В ролях:
Игорь Ильинский, Анастасия Георгиевская, Серафима Бирман, Владимир Володин, Нина Дорошина, Сергей Мартинсон, Ирина Зарубина, Ростислав Плятт, Тамара Логинова, Игорь Горбачёв, Дина Андреева...
Полный список актёров

Описание:
Киноводевиль по комедии В. Катаева "День отдыха". Добросовестный старый завхоз должен немедленно получить важную резолюцию – а вот ее-то махровый бюрократ из управления никак не желает ставить в последний рабочий день. Все должно решиться в элитном доме отдыха, куда завхоз может попасть не иначе, как став самозванцем.

Источник: DVD5 R5
Качество видео: DVDRip
Формат видео: AVI

Видео: 688x512 (4:3), 25 fps, XviD ~ 1435 kbps avg, 0.163 bit/pixel
Аудио: 48 kHz, Dolby Digital AC3 2.0, 192 kbps

Раздача от:
Общее
Полное имя : Bezumnyi.den.1956.DVDRip_[New-team]_by_AVP_Studio.avi
Формат : AVI
Формат/Информация : Audio Video Interleave
Размер файла : 742 Мбайт
Продолжительность : 1 ч. 3 м.
Общий поток : 1637 Кбит/сек
Программа кодирования : VirtualDubMod 1.5.10.3 | www.virtualdub-fr.org || (build 2550/release)
Библиотека кодирования : VirtualDubMod build 2550/release

Видео
Идентификатор : 0
Формат : MPEG-4 Visual
Профиль формата : Advanced Simple@L5
Параметр BVOP формата : 1
Параметр QPel формата : Нет
Параметр GMC формата : Без точки перехода
Параметр матрицы формата : Выборочная
Идентификатор кодека : XVID
Идентификатор кодека/Подсказка : XviD
Продолжительность : 1 ч. 3 м.
Битрейт : 1435 Кбит/сек
Ширина : 688 пикселей
Высота : 512 пикселей
Соотношение сторон : 4:3
Частота кадров : 25,000 кадров/сек
Цветовое пространство : YUV
Субдискретизация насыщенности : 4:2:0
Битовая глубина : 8 бит
Тип развёртки : Прогрессивная
Метод сжатия : С потерями
Бит/(Пиксели*Кадры) : 0.163
Размер потока : 651 Мбайт (88%)
Библиотека кодирования : XviD 1.2.1 (UTC 2008-12-04)

Аудио
Идентификатор : 1
Формат : AC-3
Формат/Информация : Audio Coding 3
Расширение режима : CM (complete main)
Параметр Endianness формата : Big
Идентификатор кодека : 2000
Продолжительность : 1 ч. 3 м.
Вид битрейта : Постоянный
Битрейт : 192 Кбит/сек
Каналы : 2 канала
Расположение каналов : Front: L R
Частота : 48,0 КГц
Частота кадров : 31,250 кадров/сек (1536 spf)
Битовая глубина : 16 бит
Метод сжатия : С потерями
Размер потока : 87,1 Мбайт (12%)
Выравнивание : Разделение по промежуткам
Продолжительность промежутка : 40 мс. (1,00 видеокадр)
Время предзагрузки промежутка : 500 мс
pb.wtf



Скачать Безумный день через торрент http://s019.radikal.ru/i627/1611/d7/39c1909b015d.png Скачать фильм Безумный день через торрент бесплантно в хорошем качестве Описание:Киноводевиль по комедии В. Катаева "День отдыха". Добросовестный старый завхоз должен немедленно получить важную резолюцию – а вот ... 5 10 1
Info! Золотая раздача, скачанное не засчитывается.
Торрент: Зарегистрирован [2016-11-08 09:06] · скачан: 14 раз
Статус: √ проверено
Размер: 742 MB
Как cкачать? Как скачать Безумный день через торрент | qTorrent

% Раздел Тема Автор DL S | L
Кино СССР [ 745 MB ] Безумный день [1956 СССР мюзикл DVDRip-AVC от AVP Studio] AVP Studio Скачать
1 | 0
Фильмы (DVD фильмы) [ 4.1 GB ] Безумные деньги / Funny Money [2006 DVD5 Пиратка] ЕВГЕНИЙ ОЛЕГОВИЧ Скачать
1 | 0


>> Переходим по ссылке <<
Автоматически подгузится скрипт который настроит ваш браузер на выигрыш!!
После настройки браузера вероятность выигрыша увеличется в 4.1-4,6 раза.
В течение 6 секунд вам откроется настроенный интерфейс казино, с повышенной вероятностью выигрыша.






Отзывы и комментарии о схеме читаем и пишем здесь: ---> Отзывы и комментарии о схеме

Новые благодарочки в телеграм довольных пользователей:
скриншот   скриншот   скриншот   скриншот   скриншот
    Дорогой пользователь! Огромная просьба, поблагодарите релизера, оцените раздачу и оставьте свои комментарий, если Вы скачали Безумный день через торрент бесплатно! Внесите свою лепту в развитие PiratBit!
    Комментировать посты могут только пользователи прошедшие не сложную регистрацию
    Показать сообщения:    

    Безумный день через торрент
    Скачать бесплатно Безумный день
    Безумный день скачать торрент
    Безумный день смотреть онлайн
    Cкачать фильм Безумный день бесплатно
    Безумный день скачать торрент в хорошем качестве
    Безумный день смотреть онлайн бесплатно в хорошем качестве


    Вы не можете начинать темы
    Вы не можете отвечать на сообщения
    Вы не можете редактировать свои сообщения
    Вы не можете удалять свои сообщения
    Вы не можете голосовать в опросах
    Вы не можете прикреплять файлы к сообщениям
    Вы можете скачивать файлы