2 сезон

iTunes

1 сезон

1

iTunes

iTunes

iTunes

1 сезон

RePack

30

ИГРА 18+

pack

ВАЖНО

!!Акция!!

Alien_RageХит недели

RePack

MK11
pack

Забери бонус

RePack

jed

!!Акция!!

Alien_Rage

RePack

fifa19

RePack

Assassins Creed: Odyssey

RePack

NEED FOR SPEED™ PAYBACK

4 сезон

9 сезон

Бесстыжие 9 сезон

Все сериалы

все сериалы на PB.wtf

RePack

FAR CRY 5
  

Любовь, сбивающая с ног / Punch-Drunk Love (Пол Томас Андерсон / Paul Thomas Anderson) [2002, триллер, драма, мелодрама, BDRip 1080p от _denis_100 / NNNB] 2xDVO + Original + Sub (Rus,2xEng) pb.wtf

Любовь, сбивающая с ног через торрент pb.wtf

Размер: 11.2 GB | Добавлен: 3 года 11 мес. назад | Торрент скачан:62 раза
Скачать  

08-11-2016 13:47 Любовь, сбивающая с ног Скачать торрент  

Любовь, сбивающая с ног / Punch-Drunk Love


Год выпуска: 2002
Страна: США
Жанр: триллер, драма, мелодрама, комедия
Продолжительность: 01:35:19
Перевод: Профессиональный двухголосый
Субтитры: русские, английские, английские (SDH)
Режиссер: Пол Томас Андерсон
В ролях:
Описание:
Барри Игану крупно не повезло. Быть восьмым ребенком в семье, где все остальные дети девчонки - это судьба не для слабых духом. Неудивительно, что в тени своих семи явно склонных к тирании сестер, строго пресекавших все его попытки завести романтические отношения, парень вырос жутким невротиком с кучей комплексов.

R - Лицам до 17 лет обязательно присутствие взрослого
Качество: BDRip 1080p
Контейнер (Расширение): MKV
Видео: 1920x800, 15350 Кбит/сек, 23,976 кадр/сек, 0,417 Бит/[Пиксели*Кадры]
Аудио №1: русский / AC3 / 5.1 / 48 kHz / 448 kbps / |Профессиональный двухголосый, НТВ+|
Аудио №2: русский / AC3 / 5.1 / 48 kHz / 384 kbps / |Профессиональный двухголосый, Видеосервис|
Аудио №3: английский / AC3 / 5.1 / 48 kHz / 640 kbps /
Навигация по главам(Чаптеры): естьАвтор рипа: Сообщество:
Format : Matroska
Format version : Version 2
File size : 11.2 GiB
Duration : 1 h 35 min
Overall bit rate : 16.8 Mb/s
Movie name : Punch-Drunk Love.2002.BDRip.1080p.[denis100]
Encoded date : UTC 2016-11-08 11:33:02
Writing application : mkvmerge v5.8.0 ('No Sleep / Pillow') built on Sep 2 2012 15:37:04
Writing library : libebml v1.2.3 + libmatroska v1.3.0

Video
ID : 1
Format : AVC
Format/Info : Advanced Video Codec
Format profile : High@L4.1
Format settings, CABAC : Yes
Format settings, ReFrames : 5 frames
Codec ID : V_MPEG4/ISO/AVC
Duration : 1 h 35 min
Bit rate : 15.4 Mb/s
Width : 1 920 pixels
Height : 800 pixels
Display aspect ratio : 2.40:1
Frame rate mode : Constant
Frame rate : 23.976 (24000/1001) FPS
Color space : YUV
Chroma subsampling : 4:2:0
Bit depth : 8 bits
Scan type : Progressive
Bits/(Pixel*Frame) : 0.417
Stream size : 9.99 GiB (89%)
Title : Punch-Drunk Love.2002.BDRip.1080p.[denis100]
Writing library : x264 core 148 r2721 72d53ab
Encoding settings : cabac=1 / ref=5 / deblock=1:-3:-3 / analyse=0x3:0x133 / me=umh / subme=11 / psy=1 / psy_rd=1.00:0.10 / mixed_ref=1 / me_range=32 / chroma_me=1 / trellis=2 / 8x8dct=1 / cqm=0 / deadzone=21,11 / fast_pskip=0 / chroma_qp_offset=-3 / threads=6 / lookahead_threads=1 / sliced_threads=0 / nr=0 / decimate=1 / interlaced=0 / bluray_compat=0 / constrained_intra=0 / bframes=12 / b_pyramid=2 / b_adapt=2 / b_bias=0 / direct=3 / weightb=1 / open_gop=0 / weightp=2 / keyint=240 / keyint_min=23 / scenecut=40 / intra_refresh=0 / rc=2pass / mbtree=0 / bitrate=15350 / ratetol=1.0 / qcomp=0.60 / qpmin=0 / qpmax=69 / qpstep=4 / cplxblur=20.0 / qblur=0.5 / ip_ratio=1.40 / pb_ratio=1.30 / aq=1:0.85
Language : English
Default : Yes
Forced : No

Audio #1
ID : 2
Format : AC-3
Format/Info : Audio Coding 3
Mode extension : CM (complete main)
Format settings, Endianness : Big
Codec ID : A_AC3
Duration : 1 h 35 min
Bit rate mode : Constant
Bit rate : 448 kb/s
Channel(s) : 6 channels
Channel positions : Front: L C R, Side: L R, LFE
Sampling rate : 48.0 kHz
Frame rate : 31.250 FPS (1536 spf)
Compression mode : Lossy
Stream size : 305 MiB (3%)
Title : DVO, НТВ+
Language : Russian
Default : Yes
Forced : No

Audio #2
ID : 3
Format : AC-3
Format/Info : Audio Coding 3
Mode extension : CM (complete main)
Format settings, Endianness : Big
Codec ID : A_AC3
Duration : 1 h 35 min
Bit rate mode : Constant
Bit rate : 384 kb/s
Channel(s) : 6 channels
Channel positions : Front: L C R, Side: L R, LFE
Sampling rate : 48.0 kHz
Frame rate : 31.250 FPS (1536 spf)
Compression mode : Lossy
Stream size : 262 MiB (2%)
Title : DVO, Видеосервис
Language : Russian
Default : No
Forced : No

Audio #3
ID : 4
Format : AC-3
Format/Info : Audio Coding 3
Mode extension : CM (complete main)
Format settings, Endianness : Big
Codec ID : A_AC3
Duration : 1 h 35 min
Bit rate mode : Constant
Bit rate : 640 kb/s
Channel(s) : 6 channels
Channel positions : Front: L C R, Side: L R, LFE
Sampling rate : 48.0 kHz
Frame rate : 31.250 FPS (1536 spf)
Compression mode : Lossy
Stream size : 436 MiB (4%)
Language : English
Default : No
Forced : No

Text #1
ID : 5
Format : UTF-8
Codec ID : S_TEXT/UTF8
Codec ID/Info : UTF-8 Plain Text
Language : Russian
Default : No
Forced : No

Text #2
ID : 6
Format : UTF-8
Codec ID : S_TEXT/UTF8
Codec ID/Info : UTF-8 Plain Text
Language : English
Default : No
Forced : No

Text #3
ID : 7
Format : UTF-8
Codec ID : S_TEXT/UTF8
Codec ID/Info : UTF-8 Plain Text
Title : SDH
Language : English
Default : No
Forced : No

Menu
00:00:00.000 : en:00:00:00.000
00:10:46.145 : en:00:10:46.145
00:20:38.320 : en:00:20:38.320
00:29:32.437 : en:00:29:32.437
00:41:50.842 : en:00:41:50.842
00:55:04.635 : en:00:55:04.635
01:00:17.906 : en:01:00:17.906
01:15:01.414 : en:01:15:01.414
01:21:23.962 : en:01:21:23.962
01:27:23.530 : en:01:27:23.530
x264 [info]: frame I:643 Avg QP:13.37 size:228005
x264 [info]: frame P:27302 Avg QP:15.23 size:126426
x264 [info]: frame B:109192 Avg QP:17.52 size: 67503
pb.wtf



Скачать Любовь, сбивающая с ног через торрент http://i5.imageban.ru/out/2016/11/08/2ee198076c6a966b7528c31e5bfecb6e.png Скачать фильм Любовь, сбивающая с ног через торрент бесплантно в хорошем качестве Описание:Барри Игану крупно не повезло. Быть восьмым ребенком в семье, где все остальные дети девчонки - это судьба не для слабых духом. ... 9 10 4
Info! Золотая раздача, скачанное не засчитывается.
Торрент: Зарегистрирован [2016-11-08 13:47] · скачан: 62 раз
Статус: √ проверено
Размер: 11.2 GB
Как cкачать? Как скачать Любовь, сбивающая с ног через торрент | qTorrent

% Раздел Тема Автор DL S | L
Фильмы 2001-2005 [ 1.45 GB ] Любовь сбивающая с ног / Punch-Drunk Love [2002 HDRip] 2 x DVO koenig Скачать
1 | 0
Фильмы [HD 720p, 1080p] (Хороший звук DUB, MVO) [ 5.71 GB ] Любовь сбивающая с ног / Punch-Drunk Love [2002 BDRip 720p] 2 x DVO koenig Скачать
1 | 0

28-11-2019 20:33  

Отключить всю рекламу на сайте

    Дорогой пользователь! Огромная просьба, поблагодарите релизера, оцените раздачу и оставьте свои комментарий, если Вы скачали Любовь, сбивающая с ног через торрент бесплатно! Внесите свою лепту в развитие PiratBit!
    Комментировать посты могут только пользователи прошедшие не сложную регистрацию
    Показать сообщения:    

    Любовь, сбивающая с ног через торрент
    Скачать бесплатно Любовь, сбивающая с ног
    Любовь, сбивающая с ног скачать торрент
    Любовь, сбивающая с ног смотреть онлайн
    Cкачать фильм Любовь, сбивающая с ног бесплатно
    Любовь, сбивающая с ног скачать торрент в хорошем качестве
    Любовь, сбивающая с ног смотреть онлайн бесплатно в хорошем качестве


    Вы не можете начинать темы
    Вы не можете отвечать на сообщения
    Вы не можете редактировать свои сообщения
    Вы не можете удалять свои сообщения
    Вы не можете голосовать в опросах
    Вы не можете прикреплять файлы к сообщениям
    Вы можете скачивать файлы