новый адрес пиратбит piratbit
Мега распродажа FORZA HORIZON 4 ULTIMATE+ВСЕ DLC+ОНЛАЙН всего за 499р. 349 руб. (супер цена). Внимание количество ограничено!!!

iTunes

1+1

iTunes

мы

iTunes

1

iTunes

Чернобыль

iTunes

Ральф против интернета

Лицензия

ПШазам

Лицензия

Игра престолов

Лицензия

30
pack

ВАЖНО

!!Акция!!

Alien_RageХит недели

RePack

Resident Evil 21

ИГРА 18+

pack

RePack

Metro:Exodus

!!Акция!!

Alien_Rage

RePack

fifa19

RePack

Assassins Creed: Odyssey

RePack

NEED FOR SPEED™ PAYBACK

3 сезон

9 сезон

Бесстыжие 9 сезон

Все сериалы

все сериалы на PB.wtf

RePack

FAR CRY 5
Ребята, катастрофически не хватает 1900р. для оплаты серверов за Октябрь (всвязи с блокировками трафик упал в 3 раза), 1-2р., выручайте.
  

Из-за чести (Арташес Ай-Артян) [1956, СССР, драма, DVDRip от AVP Studio] pb.wtf

Из-за чести через торрент pb.wtf

Размер: 1.09 GB | Добавлен: 3 года назад | Торрент скачан:6 раз
Скачать  

09-11-2016 08:59 Из-за чести Скачать торрент  

Из-за чести
Страна: СССР
Производство: Ереванская студия художественныъ и хроникальных фильмов

Жанр: драма
Год выпуска: 1956
Продолжительность: 01:16:10

Перевод: Не требуется
Cубтитры: нет
Оригинальная аудиодорожка: русский

Режиссер: Арташес Ай-Артян

В ролях:
Грачья Нерсесян, Авет Аветисян, Гурген Габриелян, Вардуи Вардересян, Хачик Назаретян, Амалия Аразян, Артём Карапетян, Марина Тбилели, Карп Хачванкян, Галина Супрунова...
Полный список актёров

Описание:
По одноименной драме классика армянской литературы А.Ширванзаде.
Нефтепромышленник-миллионер Андеас Элизбаров пытается обманом завладеть состоянием своего умершего компаньона, сын которого Арташес любит его дочь Маргариту. Не выдержав позора, Маргарита кончает жизнь самоубийством.

Источник: DVD5 R5
Качество видео: DVDRip
Формат видео: AVI

Видео: 704x528 (4:3), 25 fps, XviD ~ 1847 kbps avg, 0.199 bit/pixel
Аудио: 48 kHz, Dolby Digital AC3 2.0, 192 kbps

Раздача от:
Общее
Полное имя : Iz-za.chesti.1956.DVDRip_[New-team]_by_AVP_Studio.avi
Формат : AVI
Формат/Информация : Audio Video Interleave
Размер файла : 1,09 Гбайт
Продолжительность : 1 ч. 16 м.
Общий поток : 2049 Кбит/сек
Программа кодирования : VirtualDubMod 1.5.10.3 | www.virtualdub-fr.org || (build 2550/release)
Библиотека кодирования : VirtualDubMod build 2550/release

Видео
Идентификатор : 0
Формат : MPEG-4 Visual
Профиль формата : Advanced Simple@L5
Параметр BVOP формата : 1
Параметр QPel формата : Нет
Параметр GMC формата : Без точки перехода
Параметр матрицы формата : Выборочная
Идентификатор кодека : XVID
Идентификатор кодека/Подсказка : XviD
Продолжительность : 1 ч. 16 м.
Битрейт : 1847 Кбит/сек
Ширина : 704 пикселя
Высота : 528 пикселей
Соотношение сторон : 4:3
Частота кадров : 25,000 кадров/сек
Цветовое пространство : YUV
Субдискретизация насыщенности : 4:2:0
Битовая глубина : 8 бит
Тип развёртки : Прогрессивная
Метод сжатия : С потерями
Бит/(Пиксели*Кадры) : 0.199
Размер потока : 1006 Мбайт (90%)
Библиотека кодирования : XviD 1.2.1 (UTC 2008-12-04)

Аудио
Идентификатор : 1
Формат : AC-3
Формат/Информация : Audio Coding 3
Расширение режима : CM (complete main)
Параметр Endianness формата : Big
Идентификатор кодека : 2000
Продолжительность : 1 ч. 16 м.
Вид битрейта : Постоянный
Битрейт : 192 Кбит/сек
Каналы : 2 канала
Расположение каналов : Front: L R
Частота : 48,0 КГц
Частота кадров : 31,250 кадров/сек (1536 spf)
Битовая глубина : 16 бит
Метод сжатия : С потерями
Размер потока : 105 Мбайт (9%)
Выравнивание : Разделение по промежуткам
Продолжительность промежутка : 40 мс. (1,00 видеокадр)
Время предзагрузки промежутка : 500 мс
pb.wtf



Скачать Из-за чести через торрент http://s020.radikal.ru/i710/1611/f8/b784e7616715.png Скачать фильм Из-за чести через торрент бесплантно в хорошем качестве Описание:По одноименной драме классика армянской литературы А.Ширванзаде.Нефтепромышленник-миллионер Андеас Элизбаров пытается обманом ... 10 10 1
Info! Золотая раздача, скачанное не засчитывается.
Торрент: Зарегистрирован [2016-11-09 09:00] · скачан: 6 раз
Статус: √ проверено
Размер: 1.09 GB
Как cкачать? Как скачать Из-за чести через торрент | qTorrent

% Раздел Тема Автор DL S | L
Кино СССР [ 1.09 GB ] Из-за чести [1956 СССР DVDRip-AVC от AVP Studio] AVP Studio Скачать
1 | 0
Кино СССР [ 746 MB ] Из-за чести [1956 СССР DVDRip от AVP Studio] AVP Studio Скачать
1 | 0
Наши сериалы [ 4.27 GB ] Дело чести 1 - 8 серии из 8 [2007 DVDRip] -=Cherry=- Скачать
1 | 0


>> Регистрируемся здесь <<






Отзывы и комментарии о схеме читаем и пишем здесь: ---> Отзывы и комментарии о схеме

Новые благодарочки в телеграм довольных пользователей:
скриншот   скриншот   скриншот   скриншот   скриншот
    Дорогой пользователь! Огромная просьба, поблагодарите релизера, оцените раздачу и оставьте свои комментарий, если Вы скачали Из-за чести через торрент бесплатно! Внесите свою лепту в развитие PiratBit!
    Комментировать посты могут только пользователи прошедшие не сложную регистрацию
    Показать сообщения:    

    Из-за чести через торрент
    Скачать бесплатно Из-за чести
    Из-за чести скачать торрент
    Из-за чести смотреть онлайн
    Cкачать фильм Из-за чести бесплатно
    Из-за чести скачать торрент в хорошем качестве
    Из-за чести смотреть онлайн бесплатно в хорошем качестве


    Вы не можете начинать темы
    Вы не можете отвечать на сообщения
    Вы не можете редактировать свои сообщения
    Вы не можете удалять свои сообщения
    Вы не можете голосовать в опросах
    Вы не можете прикреплять файлы к сообщениям
    Вы можете скачивать файлы